<?xml version="1.0" standalone="no"?>
<!DOCTYPE svg PUBLIC "-//W3C//DTD SVG 1.1//EN" "http://www.w3.org/Graphics/SVG/1.1/DTD/svg11.dtd" >
<svg xmlns="http://www.w3.org/2000/svg" xmlns:xlink="http://www.w3.org/1999/xlink" version="1.1">
<metadata></metadata>
<defs>
<font id="amienneregular" horiz-adv-x="600" >
<font-face units-per-em="2048" ascent="1638" descent="-410" />
<missing-glyph horiz-adv-x="399" />
<glyph horiz-adv-x="0" />
<glyph unicode="&#xd;" horiz-adv-x="399" />
<glyph horiz-adv-x="1024" />
<glyph horiz-adv-x="1024" />
<glyph unicode=" "  horiz-adv-x="399" />
<glyph unicode="&#x09;" horiz-adv-x="399" />
<glyph unicode="&#xa0;" horiz-adv-x="399" />
<glyph unicode="!" horiz-adv-x="264" d="M45 20q0 37 9 71t20.5 63.5t22 53.5t14.5 38q39 0 59 -26.5t20 -55.5q0 -31 -12 -60.5t-28.5 -58.5t-33 -58.5t-24.5 -60.5q-47 23 -47 94zM84 532q0 20 2 41t6 41q8 45 34 100.5t55.5 114t56 115.5t36.5 107q29 -23 38.5 -45.5t9.5 -49.5v-26q-2 -16 -20.5 -58.5 t-40 -92.5t-42 -99t-26.5 -80q-2 -14 -5.5 -42t-3.5 -54q0 -31 5.5 -52.5t23.5 -21.5q29 0 61.5 17.5t44.5 27.5q-4 -29 -38.5 -45t-79.5 -16q-70 0 -93.5 35.5t-23.5 82.5z" />
<glyph unicode="&#x22;" horiz-adv-x="407" d="M158 825q0 53 11 108.5t24.5 104.5t27 87t17.5 61q35 0 58 -22.5t23 -61.5q0 -43 -15 -92t-35.5 -99.5t-41 -99.5t-32.5 -94q-37 25 -37 108zM322 803q0 57 14 115.5t32.5 109.5t35 93t20.5 65q33 0 53.5 -21.5t20.5 -58.5q0 -18 -2 -25q-10 -43 -28.5 -88t-40 -91 t-41 -92t-32.5 -93q-33 20 -32 86z" />
<glyph unicode="#" horiz-adv-x="649" d="M55 481q55 -12 170 -12l31 96q-47 4 -69.5 10.5t-34 17.5t-14.5 26.5t-9 35.5q39 -8 156 -8q18 33 37.5 76t36 85t30 80.5t19.5 65.5q16 -29 16 -61q0 -45 -19.5 -104.5t-52.5 -141.5q18 0 43 1t60 3q18 39 44.5 89.5t51 101.5t43 97t22.5 77l2 12q16 0 23.5 -18.5 t7.5 -38.5q0 -37 -17.5 -86t-38 -97.5t-38.5 -86t-20 -50.5q106 0 190 15q-37 -49 -89 -65.5t-130 -16.5q-27 -49 -41 -105q16 0 58 -3t112 -7q-35 -10 -51.5 -16.5t-32.5 -10.5t-41 -9t-74 -13q-25 -68 -45 -122t-35.5 -97t-23.5 -78t-8 -68q0 -10 1 -20t3 -21 q-27 4 -37 29t-10 57q0 20 2 42t9 54.5t22.5 81t43.5 121.5q-29 -2 -50 -3t-38 -1q-49 -147 -72.5 -237t-23.5 -131q0 -23 10 -23q4 0 9 4q-2 -27 -23 -26q-43 0 -43 100q0 51 6 91t16.5 76t23.5 70.5t28 75.5q-47 0 -75 5.5t-43 16.5t-20.5 26.5t-7.5 37.5zM299 473 q29 4 48.5 5t37.5 1q8 27 18.5 49.5t20.5 44.5q-29 -4 -52.5 -7t-43.5 -3z" />
<glyph unicode="$" horiz-adv-x="475" d="M39 287q0 27 33 35q-6 -4 -6 -19q0 -14 34 -14q25 0 54.5 4t64.5 12q4 27 10.5 54.5t12.5 56.5q-49 33 -86 73.5t-37 90.5q0 61 71 116q55 45 134 62q16 63 31.5 120.5t15.5 106.5q-1 33 -15 47q39 0 39 -84q0 -59 -18 -170v-16q63 -4 91 -21.5t28 -29.5q-6 2 -14.5 3 t-22.5 1q-45 0 -94 -13q-12 -70 -29 -137t-33 -135q43 -29 91 -55.5t83 -50.5q-35 -20 -93 -39t-120 -31l-10 -57q-8 -57 -14.5 -119t-6.5 -98q0 -23 3 -27q-43 6 -43 115q0 33 4 77.5t14 100.5q-29 -4 -51.5 -6t-38.5 -2q-37 0 -59.5 14t-22.5 35zM184 555 q0 -23 14.5 -44.5t51.5 -45.5q14 51 26.5 106.5t26.5 108.5q-23 -10 -42 -21.5t-34 -25.5q-43 -37 -43 -78zM279 322q25 4 46.5 11t39.5 15q-14 8 -33 16.5t-39 20.5q-4 -16 -7 -32.5t-7 -30.5z" />
<glyph unicode="%" horiz-adv-x="739" d="M23 -31q0 16 2 23q2 29 35.5 86t86.5 131q45 66 102.5 140.5t118 151.5t120 151.5t108.5 140.5q47 61 83 108t56 80q16 25 29.5 49t23.5 49q18 -6 19 -37q0 -2 -1 -7t-1 -9q-8 -55 -43 -121.5t-82 -138.5q-47 -68 -103.5 -140.5t-116 -145t-117.5 -146.5t-110 -146 q-14 -20 -35.5 -49.5t-43 -62.5t-37 -64.5t-15.5 -52.5q0 -27 39 -29q-31 -31 -78 -30q-14 0 -27 17t-13 52zM123 616q0 10 1 20.5t3 20.5q4 20 16.5 52t33 69t47 75t59.5 71q41 43 86 72.5t90 29.5q0 -16 7 -24.5t14 -17.5t14.5 -25.5t7.5 -49.5q0 -16 -4 -37 q-6 -37 -37 -98t-74 -119q-41 -51 -85 -87t-87 -36q-51 0 -71.5 21.5t-20.5 62.5zM170 596q0 -8 4 -12q49 8 95 45t83 86q47 63 74 120.5t27 92.5q-1 28 -15 28q-12 0 -47 -23.5t-78 -64.5q-53 -53 -98 -124.5t-45 -147.5zM344 27q0 16 9 50t25.5 76t41 89t55.5 88 q35 45 76 73.5t88 28.5q0 -12 9 -21.5t20.5 -21.5t20.5 -31.5t9 -54.5q0 -14 -6 -40.5t-16 -61.5t-26.5 -73t-37.5 -75q-33 -53 -71.5 -92t-87.5 -39q-109 0 -109 105zM399 -8q0 -10 9 -17q43 6 81.5 42t71.5 83q37 55 60.5 114.5t23.5 96.5q0 47 -20 47q-14 0 -45 -23.5 t-64 -64.5q-45 -53 -81 -126.5t-36 -151.5z" />
<glyph unicode="&#x26;" horiz-adv-x="696" d="M8 90q0 82 43 164t121 152q-20 47 -20 133q0 135 40.5 233t106.5 160q47 49 105.5 73.5t113.5 24.5q78 0 78 -92q0 -78 -34 -153.5t-83 -149.5q-51 -74 -112.5 -138.5t-116.5 -119.5q4 -16 18.5 -46t32.5 -64t38.5 -63.5t37.5 -45.5q27 20 61.5 56t67.5 73q27 33 46 58.5 t19 33.5t-2 14t-4 10q18 18 45 19q18 0 30.5 -8t12.5 -29q0 -35 -28.5 -77t-67.5 -83q-33 -35 -67.5 -63.5t-55.5 -42.5q33 -31 62.5 -55.5t62.5 -45.5q33 -20 63.5 -33.5t55.5 -13.5q41 0 51 43q14 -6 23.5 -17t9.5 -34q0 -37 -34 -69.5t-89 -32.5q-37 0 -73 14t-70 37 q-47 31 -88 72t-68 71q-37 -27 -88 -49t-133 -22q-111 0 -111 106zM70 86q0 -25 13 -39t50 -14q43 0 92 21.5t80 49.5q-8 12 -24.5 40t-35 60t-33.5 64.5t-19 53.5q-31 -25 -70 -79t-51 -132q-2 -6 -2 -25zM221 532q0 -49 8 -67q37 37 89.5 96.5t101.5 126.5q55 76 95 148.5 t40 119.5q0 43 -41 43q-43 0 -90 -30.5t-88 -77.5q-37 -45 -63.5 -98.5t-36.5 -108.5q-6 -47 -10.5 -85t-4.5 -67z" />
<glyph unicode="'" horiz-adv-x="235" d="M158 825q0 53 10 106.5t25 102.5q35 103 45 152q35 0 58 -22.5t23 -61.5q0 -37 -11 -77t-27 -83q-23 -57 -47.5 -114.5t-38.5 -110.5q-37 25 -37 108z" />
<glyph unicode="(" horiz-adv-x="569" d="M129 356q0 104 24.5 236.5t92.5 261.5q57 111 150 205t237 147q-106 -66 -190.5 -163t-139.5 -220q-51 -104 -77.5 -214.5t-26.5 -227.5q0 -86 15 -168t40 -154q33 -92 85 -159.5t118 -100.5q-104 8 -171 71.5t-104 162.5q-53 147 -53 323z" />
<glyph unicode=")" horiz-adv-x="577" d="M47 -190q94 61 173 148t134 198q55 104 85 221t30 239q0 76 -11.5 151t-33.5 144q-31 98 -84 170t-121 107q104 -6 168 -70.5t100 -163.5q27 -70 39.5 -149.5t12.5 -161.5q0 -51 -7.5 -114.5t-22.5 -133t-41 -140.5t-62 -136q-57 -98 -143.5 -179t-215.5 -130z" />
<glyph unicode="*" horiz-adv-x="626" d="M119 469q35 27 58.5 53.5t44 53t44 53t60.5 55.5q-35 47 -57.5 78t-40 49t-31 25.5t-29.5 7.5q6 12 20.5 16t28.5 4q45 0 86 -26q18 -14 35.5 -33t32.5 -43q41 143 69.5 214t63.5 71q-10 -43 -19.5 -88.5t-16.5 -86.5t-14.5 -74.5t-13.5 -52.5q45 45 107.5 77t132.5 32 q-61 -29 -94 -48.5t-54.5 -36.5t-42 -35.5t-55.5 -43.5q57 -59 92 -113.5t35 -89.5q-33 4 -52.5 11.5t-33.5 23.5q-18 14 -34.5 35.5t-43.5 54.5q-23 -70 -43 -120t-57 -111q-2 14 -2 27.5v23.5q0 27 1 43.5t4 32.5t8 39.5t14 68.5q-23 -27 -49.5 -52t-54.5 -46.5t-54.5 -35 t-44.5 -13.5z" />
<glyph unicode="+" horiz-adv-x="862" d="M117 543q20 -10 61 -14.5t88 -6.5t95.5 -2t84.5 -2q8 39 19.5 88t21 100.5t16.5 97.5t7 79q0 37 -10 47q14 6 24 6q23 0 31 -31t8 -78q0 -63 -11 -149t-28 -156q33 -2 62.5 -2h54.5q68 0 113 4t98 19q-82 -55 -162 -69.5t-178 -16.5q-14 -43 -28.5 -117t-28.5 -150 q-4 -39 -12.5 -60t-17.5 -31.5t-19.5 -12.5t-16.5 -2q-31 0 -49 35t-18 74q0 20 2 24q12 -31 21 -50.5t22 -19.5q4 0 11 25t15 68t18.5 99t20.5 122q-12 0 -42 -2t-64 -2q-33 0 -68 4t-64.5 13t-51 26.5t-25.5 42.5z" />
<glyph unicode="," horiz-adv-x="233" d="M-47 -176q14 18 39.5 72.5t46.5 123.5q12 43 19.5 87.5t7.5 87.5q20 10 32 10q59 0 60 -74q0 -80 -29 -147q-20 -43 -47 -74t-52.5 -49.5t-47 -27.5t-29.5 -9z" />
<glyph unicode="-" horiz-adv-x="591" d="M119 487q78 0 140.5 13.5t117.5 13.5q29 0 61.5 -1t62 -2t52 -4t33.5 -9q-158 -70 -332 -70q-45 0 -83 11.5t-52 47.5z" />
<glyph unicode="." horiz-adv-x="235" d="M20 20q0 31 7.5 62t17.5 57q12 35 24.5 63t14.5 44q39 0 59.5 -26.5t20.5 -55.5q0 -45 -25 -88q-18 -37 -39.5 -73t-33.5 -77q-45 20 -46 94z" />
<glyph unicode="/" horiz-adv-x="512" d="M20 -92q0 55 58 184q31 74 74 167t91 191.5t98 198t93 185.5t76 153.5t49 104.5q10 25 19.5 48t15.5 48q18 -12 18 -55q0 -49 -24.5 -122t-63.5 -165q-51 -117 -118.5 -250t-132 -261t-114.5 -241.5t-67 -189.5q0 -4 -1 -6t-1 -7q0 -31 37 -30q-29 -29 -57 -29 q-14 0 -32 16.5t-18 59.5z" />
<glyph unicode="0" horiz-adv-x="638" d="M59 215q0 141 53.5 283.5t130 260.5t162.5 198t154 98q2 -10 5 -28.5t3 -29.5q8 -4 34 -21.5t53.5 -51t49 -87t21.5 -128.5q0 -80 -20.5 -166t-54.5 -169t-80 -158t-97 -132t-105.5 -92t-105.5 -39q-88 0 -145.5 69.5t-57.5 192.5zM147 207q0 -27 4.5 -56.5t13.5 -56 t21.5 -47.5t28.5 -29q63 6 139 77t140.5 178.5t107.5 237.5t43 253q0 41 -12 71.5t-27.5 50t-31 29t-23.5 9.5q-14 0 -49 -27t-80 -75t-93 -115.5t-89 -146.5t-67 -169t-26 -184z" />
<glyph unicode="1" horiz-adv-x="409" d="M-47 104q39 -4 88 -10t86 -10q6 49 22.5 143.5t38 204t47 219t50.5 193.5q-25 -31 -58.5 -52.5t-70.5 -21.5q-33 0 -62 23q70 29 129.5 86t98.5 137q45 12 110 12q-70 -240 -136.5 -475.5t-109.5 -476.5q39 -4 74 -6t70 -2q55 0 104 6q-53 -51 -119.5 -61.5t-140.5 -10.5 q-4 -10 -6 -29.5t-2 -33.5q-16 10 -28.5 32.5t-16.5 40.5q-47 6 -94 28.5t-74 63.5z" />
<glyph unicode="2" horiz-adv-x="788" d="M-10 82q0 20 2 27l4 14q49 33 115.5 78t137 98t141.5 114.5t130 127.5q78 86 129 176t51 182q0 37 -29.5 60.5t-92.5 23.5q-53 0 -102.5 -18.5t-96.5 -48t-92 -63.5t-90 -65q-35 -25 -66 -24q-33 0 -51.5 21.5t-20.5 56.5q35 4 92.5 35.5t125 68.5t138 66.5t136.5 29.5 q47 0 91 -13t78 -37.5t54.5 -58.5t20.5 -75q0 -88 -55.5 -179t-141.5 -183q-55 -59 -115.5 -116.5t-120 -111t-112.5 -101.5t-92 -87q16 2 41.5 3t60.5 1q59 0 135 -5t154 -16q88 -10 167 -26.5t124 -36.5q-61 4 -129 6t-138 2q-143 0 -281 -9t-249 -28q-27 14 -40 45 t-13 66z" />
<glyph unicode="3" horiz-adv-x="806" d="M20 127q0 86 56.5 146.5t124.5 95.5q-37 -37 -61.5 -78t-24.5 -117q0 -55 45 -70.5t143 -15.5q72 0 153 11.5t140 41.5q37 20 59.5 47t22.5 66q0 41 -20.5 77t-53.5 66q-47 45 -108.5 75t-116.5 38q-57 -33 -121 -33q-68 0 -110 26.5t-42 80.5q16 -4 40 -8.5t47 -4.5 q41 0 93 11.5t107.5 31t111.5 44t103 51.5q63 37 103.5 77.5t40.5 77.5t-31 60.5t-74 37t-91 19.5t-83 6q-41 0 -97.5 -19.5t-101.5 -49.5q-31 -23 -50 -50.5t-19 -58.5q-33 8 -49.5 27.5t-16.5 37.5q0 53 72 97q47 31 123 50t176 19q35 0 90 -6t108.5 -23.5t91.5 -50 t38 -88.5q0 -68 -49.5 -125t-120.5 -104q-45 -29 -94.5 -52.5t-94.5 -43.5q47 -16 92 -40t84 -54q53 -39 87 -90.5t34 -122.5q0 -72 -37 -119t-94 -76q-41 -20 -88 -33.5t-94 -20.5t-90 -9t-76 -2q-68 0 -120 13t-87 33.5t-52.5 47t-17.5 53.5z" />
<glyph unicode="4" horiz-adv-x="722" d="M20 403q0 12 3 15q88 37 163.5 102.5t139.5 143.5q70 82 123 171t92 164q-25 -117 -63 -213t-93 -174q-39 -53 -86 -98t-106 -82q31 0 61.5 1t60.5 1q141 0 244 -20q20 86 52 176t61 184t50 176t21 170q35 -20 47.5 -58t12.5 -89q0 -59 -14.5 -131t-34 -149t-42 -153.5 t-38.5 -144.5q53 -6 99 -20.5t101 -14.5q23 0 37 25q2 -8 3 -13t1 -10q-4 -35 -81 -34q-37 0 -85.5 11t-84.5 15q-10 -41 -23.5 -96t-29 -116.5t-30 -123t-24.5 -116.5q-14 0 -42 4t-34 18q0 104 19.5 217t48.5 230q-41 10 -91.5 18t-105.5 8q-164 0 -305 -63 q-10 10 -18.5 28.5t-8.5 40.5z" />
<glyph unicode="5" horiz-adv-x="825" d="M2 131q0 33 18.5 66.5t49 64.5t70.5 56.5t83 39.5q-39 -37 -62.5 -61.5t-36.5 -42.5t-17.5 -33.5t-4.5 -32.5q0 -35 19.5 -55t49.5 -32.5t63.5 -16.5t62.5 -4q63 0 138 11t136 48q55 35 91 94.5t36 157.5q0 168 -266 168q-86 0 -158.5 -51t-126.5 -113q-39 41 -53 92 q27 37 45.5 103.5t30.5 138.5q8 59 12 113.5t4 97.5v32.5t-2 28.5q16 18 54 39q31 -8 82 -19t100 -11q45 0 83 4t74.5 8t75.5 8t84 4q2 0 25.5 -4t50.5 -14t49.5 -28.5t22.5 -47.5q0 -14 -5.5 -30.5t-27.5 -37.5q-4 14 -11 25.5t-24.5 20t-52.5 11.5t-94 3q-23 0 -44.5 -4 t-46 -8.5t-54 -8.5t-66.5 -4q-43 0 -95.5 7.5t-115.5 15.5q0 -55 -3 -103.5t-12 -103.5q-8 -94 -30 -180q82 70 229 69q184 0 277.5 -78.5t93.5 -201.5q0 -86 -48 -153.5t-120 -115.5q-63 -41 -133 -63.5t-131 -22.5q-47 0 -110.5 4.5t-121 19.5t-97.5 46t-40 84z" />
<glyph unicode="6" horiz-adv-x="827" d="M39 219v24.5t4 24.5q18 117 76.5 232.5t146.5 226.5q53 66 115.5 125t128 106.5t133.5 79t131 41.5q-49 -33 -104.5 -78t-110.5 -97t-108.5 -108.5t-98.5 -113.5q-37 -47 -67.5 -90t-51.5 -86q47 49 112 80.5t157 31.5q156 0 234.5 -66.5t78.5 -182.5q0 -86 -46 -161 t-124 -132q-66 -49 -146.5 -77t-168.5 -28q-72 0 -126 19.5t-91 53.5t-55.5 79t-18.5 96zM139 205q0 -74 38 -131.5t120 -57.5q70 0 144.5 39t138.5 92q57 49 97 104.5t48 98.5q2 12 2 24.5v22.5q0 70 -36 123t-124 53q-59 0 -115.5 -23.5t-102.5 -57t-73.5 -69.5t-27.5 -61 q0 -53 71 -53q-33 -20 -59 -20q-59 0 -80 55q-23 -29 -32 -65.5t-9 -73.5z" />
<glyph unicode="7" horiz-adv-x="555" d="M121 78q0 117 52 234.5t118 222.5q86 135 192.5 250.5t206.5 209.5q-78 -10 -170 -17t-186 -7q-29 0 -61.5 2t-60.5 11t-46.5 26.5t-18.5 50.5q0 12 3 14q14 -10 51 -21.5t125 -11.5q45 0 149.5 2.5t284.5 6.5q39 -27 51 -66q-256 -211 -446 -500q-45 -72 -82 -145.5 t-62.5 -136t-39 -108.5t-13.5 -60q0 -47 17.5 -87t70.5 -40q-17 -6 -27 -6q-33 0 -53 16t-32.5 42t-17.5 56.5t-5 61.5z" />
<glyph unicode="8" horiz-adv-x="548" d="M-2 59q0 41 27.5 89.5t66.5 97.5q51 59 99.5 105t70.5 63q-41 43 -69.5 119.5t-28.5 154.5q0 68 29.5 133.5t82.5 116.5q47 47 114 75.5t147 28.5q25 0 56.5 -9t31.5 -23q-78 0 -156 -32t-137 -93q-47 -47 -74 -108.5t-27 -139.5q0 -49 19.5 -97t54.5 -75q49 33 114.5 92 t121.5 125q41 47 68.5 94t27.5 84q0 33 -38 48.5t-79 15.5q-16 0 -37 -4q31 23 67.5 34t67.5 11q49 0 79 -28t30 -65q0 -49 -37 -109.5t-90 -121.5q-31 -37 -65.5 -73t-67.5 -66.5t-62.5 -55t-48.5 -38.5q18 -25 40 -49.5t41.5 -52t31.5 -60.5t12 -72q0 -74 -25.5 -115 t-64.5 -60t-86 -23.5t-90 -4.5t-82 7.5t-68.5 18.5t-48 27.5t-18.5 34.5zM102 53q0 -18 12.5 -29.5t47.5 -11.5q27 0 66.5 4t74.5 18.5t60.5 42t25.5 75.5q0 57 -27.5 113.5t-58.5 92.5q-33 -31 -67.5 -71.5t-65.5 -85.5q-31 -43 -49.5 -81t-18.5 -67z" />
<glyph unicode="9" horiz-adv-x="557" d="M53 535q0 59 20.5 115.5t52.5 105.5t71 89t73 66q88 72 176.5 106t143.5 34q86 0 108 -50q10 0 38 -8t38 -12q-39 -68 -68.5 -126t-56 -115.5t-50.5 -115t-50 -120.5q-53 -135 -86 -290t-47 -298q-39 80 -39 184q0 125 33.5 257t93.5 243q-31 -29 -68 -60.5t-78 -60 t-85 -47t-89 -18.5q-63 0 -97 35.5t-34 85.5zM113 492q0 -16 4 -33t14 -17q51 0 99.5 23.5t92.5 60.5t86 80t78 84q45 49 96.5 132t92.5 159q0 18 -20 27.5t-40 9.5q-55 0 -138 -44t-165 -120q-33 -33 -67.5 -74t-64 -89t-49 -98t-19.5 -101z" />
<glyph unicode=":" horiz-adv-x="235" d="M20 20q0 35 8.5 67t18.5 60q14 31 24.5 57t12.5 42q39 0 59.5 -26.5t20.5 -55.5q0 -27 -9.5 -50.5t-21.5 -50.5q-18 -33 -37.5 -66.5t-29.5 -70.5q-45 20 -46 94zM125 530q0 31 7 62t18 59q12 33 23 61t15 44q39 0 58.5 -23.5t19.5 -54.5q0 -25 -8 -52.5t-22 -52.5 q-18 -37 -38 -71.5t-28 -71.5q-27 10 -36 37t-9 63z" />
<glyph unicode=";" horiz-adv-x="233" d="M-47 -176q14 18 37.5 70.5t44.5 119.5q12 43 21.5 89.5t9.5 91.5q20 10 32 10q59 0 60 -74q0 -49 -10.5 -88t-24.5 -72q-20 -41 -46 -68.5t-50.5 -45t-45 -25.5t-28.5 -8zM125 530q0 31 7 62t18 59q12 33 23 61t15 44q39 0 58.5 -23.5t19.5 -54.5q0 -25 -8 -52.5 t-22 -52.5q-18 -37 -38 -71.5t-28 -71.5q-27 10 -36 37t-9 63z" />
<glyph unicode="&#x3c;" horiz-adv-x="700" d="M90 481q12 20 50 42t91.5 42.5t115 40t118.5 39t107 38t79 36.5q-10 -41 -45 -72t-81 -55.5t-99 -46t-99 -42t-81 -43t-45 -48.5q45 -51 125 -104.5t221 -108.5q-86 8 -169 34.5t-146.5 65.5t-102.5 86t-39 96z" />
<glyph unicode="=" horiz-adv-x="722" d="M68 395q106 0 189 13.5t157 13.5q86 0 165.5 -2t108.5 -14q-111 -33 -227.5 -50.5t-227.5 -17.5q-59 0 -105 11t-60 46zM104 580q106 0 190.5 13t158.5 13h83t81.5 -2t67.5 -5t42 -9q-111 -33 -227.5 -50.5t-227.5 -17.5q-61 0 -107 11.5t-61 46.5z" />
<glyph unicode="&#x3e;" horiz-adv-x="700" d="M90 199q10 41 45 71.5t81 55t99.5 46t99.5 42t80.5 43t45.5 49.5q-45 51 -125 104.5t-221 108.5q86 -8 168.5 -35t146 -65.5t102.5 -86t39 -96.5q-12 -20 -50 -41.5t-91 -42t-114.5 -40t-119 -39t-107.5 -39t-79 -35.5z" />
<glyph unicode="?" horiz-adv-x="585" d="M55 772q8 57 48 107.5t99.5 86t131 56t145.5 20.5q57 0 106.5 -16t85.5 -45t56.5 -68t20.5 -82q0 -70 -52.5 -135t-124 -123.5t-147.5 -109.5t-123 -92q57 6 117.5 26.5t107.5 53.5q-2 -14 -17 -38t-43 -46.5t-64.5 -42t-79.5 -25.5q-12 2 -30 10t-36 18.5t-32.5 20.5 t-18.5 14q16 39 59 75t97.5 69t115 66.5t109.5 68.5t80.5 73t31.5 83q0 37 -18 65.5t-48 48t-68 28.5t-79 9q-35 0 -93 -7t-120.5 -27.5t-121 -54.5t-95.5 -87zM231 20q0 37 9.5 71t20.5 63.5t21.5 53.5t14.5 38q39 0 59.5 -26.5t20.5 -55.5q0 -31 -13.5 -60.5t-30 -58.5 t-32.5 -58.5t-22 -60.5q-47 23 -48 94z" />
<glyph unicode="@" horiz-adv-x="1017" d="M59 344q0 158 82 286t205 226q117 88 250 136t256 48q68 0 118 -21.5t82.5 -55t48 -77.5t15.5 -89q0 -51 -14.5 -106.5t-36 -110t-49 -104.5t-53.5 -91q-49 -70 -104.5 -113t-108.5 -43q-29 0 -53.5 14.5t-43 37t-31 48t-16.5 48.5q-8 -10 -24.5 -26.5t-36 -32t-42 -26.5 t-44.5 -11q-20 0 -36.5 10t-29 25.5t-18.5 33t-6 31.5q0 51 31.5 109.5t74.5 107.5t88 81t74 32q51 0 72 -33q10 14 16 29q39 -4 55 -13q-18 -45 -50 -119.5t-52 -160.5q-4 -10 -5 -25.5t-1 -30.5q0 -23 21.5 -49t35.5 -26q41 0 86 45t88 108q29 49 55.5 102.5t46 101.5 t32 89t12.5 66q0 37 -12.5 72.5t-38 63t-65.5 44t-95 16.5q-129 0 -239 -52t-198 -138q-59 -53 -105 -114.5t-78 -122t-48 -117t-16 -99.5q0 -72 27.5 -131t74.5 -101t111.5 -65.5t138.5 -23.5q104 0 192 33.5t168 80.5q-27 -37 -69.5 -66.5t-97 -51t-116 -34t-124.5 -12.5 q-78 0 -149.5 29t-127 78t-89.5 115.5t-34 144.5zM422 346q0 -16 10 -16q25 0 52.5 14t52 34.5t44 41t27.5 31.5q8 23 20.5 52t26 58t25.5 53.5t18 34.5q-4 20 -15 28.5t-19 8.5q-35 -18 -77 -61t-79 -93.5t-61.5 -101.5t-24.5 -84z" />
<glyph unicode="A" horiz-adv-x="763" d="M70 55q0 70 30.5 156t69.5 190q12 37 32.5 87.5t47 106.5t57.5 116.5t66 115.5q59 92 127.5 156t144.5 64q51 0 69.5 -30t18.5 -73q0 -35 -10 -90t-23.5 -121.5t-27 -140.5t-19.5 -148q43 4 94.5 5.5t83.5 1.5h23q-41 -20 -87 -32.5t-124 -39.5q-2 -35 -3 -69t-1 -66 q0 -117 19.5 -188.5t66.5 -71.5q16 0 33.5 13t25.5 34q6 -4 7 -19q0 -14 -15.5 -37.5t-62.5 -23.5q-55 0 -89 25.5t-53.5 67.5t-25.5 97.5t-6 114.5q0 27 1 51t3 51q-35 -12 -86 -24t-105 -12q-70 0 -116 20q-31 -100 -49.5 -180t-18.5 -135q0 -39 12 -60q-47 0 -78.5 20.5 t-31.5 67.5zM250 393q53 0 129 6t168 33q0 61 19.5 150.5t43 174.5t43 150.5t19.5 77.5q0 29 -19 29q-57 0 -113.5 -60.5t-107.5 -152.5q-31 -55 -58.5 -112.5t-51 -112t-42 -102.5t-30.5 -81z" />
<glyph unicode="B" horiz-adv-x="851" d="M61 -10q16 100 33 181t33 144q25 90 54.5 187.5t60 188.5t62.5 172t61 141q-18 0 -49 -4.5t-65 -9.5t-67.5 -12t-58.5 -13q14 18 46 32.5t70 25.5t75.5 17.5t68.5 6.5q8 0 12 16t6 16q0 -8 1.5 -19t3.5 -11q78 0 155.5 -15.5t140 -43t101.5 -67.5t39 -89 q0 -59 -46 -101.5t-118 -68.5q-47 -18 -98.5 -32t-98.5 -23t-88 -16t-67 -13q41 -2 97 -9.5t114.5 -20.5t116 -34.5t103.5 -51.5t73.5 -70t27.5 -91q0 -59 -54 -106t-140 -84q-70 -31 -153 -54.5t-165 -39t-158 -22.5t-129 -7zM160 86q297 35 448 107q135 66 135 155 q0 39 -45 71t-114.5 56.5t-154.5 42t-167 25.5q-2 0 -10 -28t-18.5 -71t-22.5 -95t-22.5 -103t-18.5 -94t-10 -66zM289 637q27 2 68.5 9t88 18.5t95.5 27t92 35.5q47 27 78.5 58.5t31.5 70.5q0 27 -30.5 52.5t-78.5 47t-106.5 35t-113.5 15.5q-6 -4 -20.5 -45t-33 -97.5 t-38 -119t-33.5 -107.5z" />
<glyph unicode="C" horiz-adv-x="1017" d="M135 352q0 135 66.5 271.5t183.5 240.5q92 86 203.5 134.5t236.5 48.5q33 0 63 -16.5t53.5 -43t37.5 -60.5t14 -69q0 -41 -10 -55q-8 23 -20.5 49.5t-28.5 49t-39 37.5t-51 15q-92 0 -191.5 -44t-185.5 -115q-104 -92 -173 -208t-69 -241q0 -59 21.5 -106t56.5 -84 q86 -90 199 -90q98 0 183 36.5t163 90.5q72 53 133 111t104 110q4 -4 5 -23q0 -16 -3 -18q-37 -59 -93 -117.5t-126 -108.5q-102 -78 -215.5 -126t-199.5 -48q-66 0 -121.5 27t-95.5 74q-100 104 -101 278z" />
<glyph unicode="D" horiz-adv-x="905" d="M82 0v16.5t2 14.5q0 12 2 22t2 25q14 76 46 187.5t71 237.5t81 257t76 248q-10 2 -26.5 3t-40.5 1q-37 0 -66.5 -7.5t-64.5 -21.5q27 35 74 47t94 12q125 0 238.5 -38.5t201.5 -101t140.5 -143.5t52.5 -165q0 -55 -30 -117.5t-80 -124t-115.5 -120t-137.5 -107.5 q-98 -66 -194.5 -108t-165.5 -42q-25 0 -41.5 5.5t-30.5 11.5l-2 -21q-4 -25 -14.5 -52.5t-18.5 -37.5q-31 20 -42 53t-11 66zM184 78q25 6 64 17t86 27.5t100 37t107 47.5q70 33 136 74t117.5 90t83 108.5t31.5 126.5q0 70 -46 139.5t-115.5 125t-153.5 89t-158 33.5 q-158 -471 -252 -915z" />
<glyph unicode="E" horiz-adv-x="884" d="M86 156q0 100 40 169.5t103 118.5q70 55 152 88t149 54q-37 14 -76.5 31.5t-72.5 41.5q-45 31 -73.5 69t-28.5 87q0 78 47 124t110 69q57 23 114.5 28.5t92.5 5.5q156 0 226.5 -42t70.5 -97q0 -25 -19.5 -48.5t-76.5 -43.5q8 8 8 14v15q0 33 -16.5 61.5t-44 50 t-61.5 33.5t-71 12t-91 -8t-101 -28q-43 -16 -71.5 -43t-28.5 -64q0 -35 28.5 -67.5t75.5 -61.5q37 -25 82 -45.5t93 -33.5t95 -21.5t84 -8.5q45 0 80 19q-35 -109 -164 -109q-33 0 -80 11.5t-75 23.5q-59 -12 -144.5 -53t-156.5 -100q-45 -39 -75 -83t-30 -94 q0 -39 33 -68.5t82 -49t107.5 -29.5t111.5 -10q141 0 210 41t69 157q0 39 -17 68q43 -18 64.5 -47t21.5 -82q0 -33 -17.5 -73t-60.5 -75.5t-115.5 -59t-185.5 -23.5q-45 0 -112.5 5t-131 23.5t-108.5 53t-45 94.5z" />
<glyph unicode="F" horiz-adv-x="858" d="M43 645q27 -12 70 -12q29 0 53 6t45 14q-41 -41 -72 -55l170 27q33 88 62.5 159.5t60.5 130.5q-23 2 -63.5 9.5t-82.5 20.5t-73 36t-31 55q0 18 13 29q16 -12 31.5 -22.5t34 -16.5t43 -10t58.5 -4q49 0 115 6q16 25 29.5 59.5t15.5 44.5q27 0 36 -14t9 -35v-20.5 t-2 -18.5v-8q160 10 242 14t98 4q23 0 72 -1t98 -5t87 -12t38 -22q-4 -16 -33 -19q2 2 5.5 5t3.5 7q-20 4 -21 4q-4 0 -29.5 -3t-70.5 -3q-10 0 -48 -3t-91.5 -9t-115 -13t-117.5 -14.5t-100 -13.5t-63 -10q-33 -78 -59.5 -150.5t-50.5 -142.5q289 39 439 58.5t181 20.5 q-86 -33 -164 -58t-151 -44q-68 -18 -151 -33.5t-187 -23.5q-39 -129 -70 -264t-31 -279q0 -45 13 -45q25 25 51.5 68t52 92t47 99.5t34.5 88.5q-6 -57 -23 -120.5t-41.5 -119.5t-56 -97t-68.5 -56q-18 6 -33.5 14.5t-27 24t-17.5 42t-6 71.5q0 31 5 88t16 123.5t25.5 134.5 t33.5 121q-86 -8 -142.5 -12.5t-83.5 -4.5q-26 26 -26 61q0 36 14 56z" />
<glyph unicode="G" horiz-adv-x="1173" d="M115 369q0 129 63.5 243.5t192.5 231.5q100 92 210 151.5t214 59.5q14 0 61 -9.5t98.5 -31t92 -54t40.5 -81.5q0 -10 -6 -24.5t-15 -28t-20.5 -22.5t-19.5 -9q2 8 7 17t5 26q0 29 -23.5 52t-57 40.5t-68.5 27t-55 9.5q-27 0 -75 -14.5t-103.5 -40t-112 -60.5t-97.5 -74 q-43 -41 -86 -93t-76.5 -114.5t-54 -136.5t-20.5 -155q0 -61 22.5 -102.5t57.5 -67t79 -36t87 -10.5q88 0 167.5 18.5t165.5 61.5q25 12 63 39t76 56.5t69.5 59.5t45.5 52q12 23 20.5 46.5t22.5 47.5q-37 -10 -98 -22t-130 -22.5t-133.5 -17.5t-107.5 -7q-39 0 -71.5 19.5 t-32.5 56.5q10 -4 43 -8.5t68 -4.5q47 0 127.5 7.5t160.5 17.5t142.5 21.5t72.5 21.5q10 -14 32 -30.5t40 -43.5q-55 -47 -94 -134t-62.5 -177t-34 -164t-10.5 -96q0 -18 13 -51q-20 0 -33.5 12t-23 30.5t-13.5 40t-4 37.5q0 18 7 59.5t18.5 89.5t21.5 94t16 75 q-27 -37 -74.5 -81t-113.5 -85q-72 -47 -158 -79t-178 -32q-96 0 -163.5 34t-111.5 90.5t-64.5 128t-20.5 145.5z" />
<glyph unicode="H" horiz-adv-x="907" d="M4 518q0 9 4 29q12 4 42 11t63.5 15.5t68.5 14.5t60 8q4 10 18 48t33.5 89t43 109.5t47.5 108.5t44.5 86t34.5 44q0 -45 -37 -161q-8 -27 -16.5 -54.5t-18.5 -52.5q-8 -27 -25.5 -80t-46.5 -131q84 0 115 -7t45 -20q-10 2 -26.5 2.5t-36.5 0.5h-45t-58 -3 q-16 -39 -24 -68.5t-17 -45.5h43q14 0 30.5 3t47.5 7t84 8t146 8q37 160 99 307.5t157 317.5v-12q0 -8 -1 -18.5t-4 -22.5q-2 -14 -13 -56t-27.5 -97.5t-36 -119t-38 -122t-31.5 -104.5t-17 -68q45 4 64.5 7t34.5 4t38.5 2t79.5 1q27 0 54.5 -1t50 -6t36.5 -12.5t14 -19.5 q-8 0 -14 2t-13 4t-19.5 4t-35.5 2q-31 0 -112.5 -9t-188.5 -26l-10 -63q-4 -14 -11 -71.5t-7 -127.5q0 -41 4 -80t16.5 -69.5t32.5 -50t51 -19.5q35 0 56.5 19.5t33 47t14.5 56.5t3 45q0 20 -5.5 54t-15.5 63q14 -14 28.5 -53t14.5 -89q0 -10 -3 -40.5t-16.5 -64.5 t-42 -60.5t-79.5 -26.5q-29 0 -61.5 11.5t-60.5 41t-46 81.5t-18 132q0 29 3 61.5t7 67.5l20 123q-10 0 -47 -4t-85 -9t-98 -11.5t-87 -10.5h-39q-16 -39 -28.5 -94t-21.5 -111.5t-13.5 -108.5t-4.5 -87q0 -80 17.5 -111.5t38.5 -44.5q-20 2 -40 11.5t-35 32t-25.5 59.5 t-10.5 96q0 70 7 132t16.5 110.5t19.5 80t16 41.5q-20 2 -51 4.5t-60.5 12.5t-51 32.5t-21.5 65.5zM51 512q16 -14 27.5 -21.5t25 -11.5t36 -8t63.5 -12q14 41 20 68.5t8 37.5q-33 0 -76.5 -10t-103.5 -43z" />
<glyph unicode="I" horiz-adv-x="272" d="M106 121q0 29 3.5 61.5t7.5 71.5q14 90 46 200.5t65.5 215t61 188.5t34.5 121q2 6 2 27q0 45 -19 45q-23 0 -47 -21.5t-31 -32.5q4 18 18.5 45t43.5 29q47 0 68.5 -31.5t21.5 -103.5q0 -90 -21.5 -184.5t-51 -189.5t-57.5 -188t-40 -179q-8 -41 -10 -86.5t-2 -81.5 q0 -33 1 -55.5t5 -32.5q-47 6 -73 48t-26 134z" />
<glyph unicode="J" horiz-adv-x="407" d="M-131 -164q0 25 23.5 49.5t53 44t57.5 31.5t36 12q-35 -31 -54.5 -56.5t-19.5 -76.5q0 -27 25.5 -37t60.5 -10q39 0 76 12.5t66.5 34t47 52t17.5 69.5q0 55 -5 153.5t-5 209.5q0 115 19.5 237.5t54 229t85 184t111.5 102.5q-45 -117 -82 -233.5t-53 -204.5 q-20 -143 -28.5 -243.5t-8.5 -170.5q0 -104 9.5 -158.5t9.5 -89.5q0 -72 -29 -114.5t-71 -65t-90 -30t-89 -7.5q-31 0 -68.5 2t-70.5 9.5t-55.5 23t-22.5 41.5z" />
<glyph unicode="K" horiz-adv-x="841" d="M84 567q0 4 1 9.5t3 13.5q18 -33 46 -54.5t50 -35.5q31 117 59.5 196.5t57.5 143.5q35 78 68.5 146.5t70.5 152.5q16 -14 21.5 -35t5.5 -41q0 -23 -2 -25q-8 -66 -32.5 -124t-51.5 -117q-33 -70 -66.5 -144.5t-58.5 -173.5q10 -4 34.5 -8t63.5 -4q37 0 70 7t65 20 q47 20 88 48.5t78 65.5q49 49 90 105.5t71 111t50.5 99.5t30.5 73q0 -63 -10 -136t-49 -161q-20 -43 -47 -85t-66 -80q-80 -80 -203 -125q-66 -25 -107.5 -25t-78.5 -4q39 -45 93 -94t114 -94q43 -37 88 -69t86 -54.5t71.5 -36t47.5 -13.5q16 0 35.5 13.5t25.5 40.5 q8 -14 8 -37q0 -33 -21.5 -57.5t-56.5 -24.5q-92 0 -177 48t-163 116q-86 72 -152.5 147.5t-107.5 120.5q-10 -29 -22 -75t-25 -99q-12 -47 -19 -97t-7 -93q0 -25 10 -25q12 0 16 29q10 -14 10 -31q0 -43 -34 -43q-16 0 -26.5 12t-15.5 28.5t-7.5 35t-2.5 30.5q0 35 4.5 78 t14.5 92q8 49 19.5 98.5t23.5 90.5q-37 20 -59.5 58t-22.5 91z" />
<glyph unicode="L" horiz-adv-x="755" d="M4 51q4 8 10 14.5t15 14.5q96 227 182 481q43 129 78 249t57 230q37 -72 37 -166q0 -86 -21.5 -176t-52.5 -184q-37 -100 -74.5 -198.5t-70.5 -186.5q23 8 74 8q72 0 137 -21.5t125 -52.5q78 -43 165 -54t181 -13q-72 -31 -148 -31q-133 0 -256 62q-41 20 -77.5 35.5 t-75.5 15.5q-61 0 -118.5 -36t-84.5 -105z" />
<glyph unicode="M" horiz-adv-x="706" d="M-70 -293q25 47 56.5 137t66.5 207t72 251t71.5 271.5t67.5 268.5t60 239h16q29 0 43 -4l35 -10q-18 -104 -37 -211.5t-19 -212.5q0 -92 16.5 -178t59.5 -162q98 137 169 289.5t83 312.5q4 0 14.5 1t22.5 1q61 0 92 -14q-27 -78 -70.5 -200t-68.5 -267q-8 -55 -16.5 -127 t-8.5 -149q0 -68 8.5 -131.5t31 -113.5t60.5 -85t97 -45q31 0 65.5 19.5t69.5 47t66.5 60t56.5 57.5q-63 -104 -129 -156.5t-145 -56.5q-61 0 -111.5 28.5t-85.5 75t-54.5 103.5t-19.5 115q0 59 10.5 150t18.5 185q-6 -12 -21.5 -34.5t-34 -47t-38 -45t-31.5 -26.5 q-55 2 -92 41t-60.5 93t-34 114.5t-12.5 103.5q-27 -104 -61.5 -238.5t-77.5 -263.5t-93 -235.5t-108 -157.5z" />
<glyph unicode="N" horiz-adv-x="653" d="M111 -23q14 147 23 297t32 299q20 129 52 251t69 210q28 17 63 17t51 -19q-45 -117 -63.5 -224.5t-18.5 -217.5q0 -176 41 -352q14 -63 36 -121t69 -99q8 23 15 46.5t12 48.5q12 76 28.5 171t41 195.5t58 198.5t79.5 182t106.5 146.5t138.5 91.5q-84 -111 -141.5 -235 t-98 -253t-67.5 -260t-47 -260q-8 -47 -38 -78.5t-77 -40.5q-88 18 -131 75.5t-62.5 133.5t-25.5 161t-20 159q-8 -86 -15.5 -152.5t-21.5 -144.5q-10 -66 -29.5 -132.5t-58.5 -93.5z" />
<glyph unicode="O" horiz-adv-x="1171" d="M16 453q0 123 52.5 231.5t135.5 189t188.5 128t209.5 47.5q131 0 246 -22.5t200 -71t134 -123t49 -179.5q0 -143 -59.5 -266t-156.5 -214t-223 -143.5t-257 -52.5q-76 0 -146 34t-123 89.5t-84.5 125t-31.5 143.5q0 109 32.5 203t79.5 168.5t100.5 128t94.5 79.5 q-92 -41 -170 -101.5t-134.5 -134t-88 -156.5t-31.5 -169q0 -14 1 -25.5t3 -21.5q-10 18 -15.5 49t-5.5 64zM236 360q0 -68 18 -128t55 -106t90.5 -72.5t120.5 -26.5q100 0 202.5 42t185.5 116.5t135.5 178t52.5 226.5q0 76 -34 148.5t-95.5 129t-148.5 91t-193 34.5 q-98 0 -171 -70.5t-121 -171t-72.5 -208t-24.5 -183.5z" />
<glyph unicode="P" horiz-adv-x="802" d="M-143 793q0 53 31.5 94t80.5 69.5t110.5 47t121 28.5t110.5 14.5t82 4.5q88 0 187.5 -15.5t181.5 -52.5t136 -98.5t54 -151.5q0 -43 -28.5 -89t-110.5 -85q-68 -35 -185.5 -62.5t-314.5 -43.5q-20 -74 -43.5 -152t-45 -154.5t-40 -150.5t-26.5 -141q-14 29 -15 90 q0 55 9.5 126.5t22.5 142.5t29.5 131.5t31.5 96.5q-37 -6 -70 -6q-84 0 -158 21q25 4 56.5 8t65.5 9t65.5 9t54.5 9q61 180 117.5 296t93.5 175q-8 -53 -26.5 -119t-39 -128.5t-38 -117.5t-23.5 -88q37 8 88 20.5t106.5 28.5t111.5 35.5t103 42.5q63 33 102.5 66.5 t39.5 70.5q0 43 -30 77t-78 59.5t-105.5 44t-112.5 29.5t-101 16.5t-69 5.5q-55 0 -131 -11.5t-149.5 -40t-130 -80t-70.5 -131.5l-2 -14q-49 0 -49 64z" />
<glyph unicode="Q" horiz-adv-x="1017" d="M111 342q0 121 29.5 229.5t81.5 198.5t125 158.5t157 109.5q-33 -31 -68 -69.5t-51 -65.5q53 49 96 78t83 44t80 20.5t85 5.5q78 0 143.5 -21.5t112.5 -66.5t72.5 -115t25.5 -166q0 -94 -22.5 -175t-56 -144.5t-71.5 -107.5t-67 -65q63 -49 103.5 -98t79.5 -90 q37 -39 79.5 -62.5t110.5 -23.5q37 0 73 12.5t66 30.5q-20 -31 -62 -59.5t-120 -28.5q-68 0 -115 18.5t-84 53.5q-43 39 -83 91t-93 109q-14 -14 -49 -40.5t-85 -53t-113.5 -46t-135.5 -19.5q-82 0 -143.5 27.5t-102 75.5t-61 113.5t-20.5 141.5zM174 362q0 -57 13.5 -114.5 t43 -102.5t75.5 -73.5t112 -28.5q94 0 184 31.5t168 118.5q-25 18 -62.5 41.5t-86 45t-103.5 37t-110 19.5q47 22 98 22h4q78 0 159 -34.5t150 -87.5q72 78 117 187t45 239q0 80 -24.5 137t-64.5 94t-92.5 54.5t-107.5 17.5q-104 0 -183 -48.5t-135.5 -118t-91 -147.5 t-51.5 -137q0 37 7.5 74t18.5 72.5t22.5 65.5t19.5 52q-20 -18 -43 -74.5t-41 -122t-29.5 -128t-11.5 -91.5z" />
<glyph unicode="R" horiz-adv-x="604" d="M-33 795q0 57 35 103t88 77t117 48t119 17q88 0 162.5 -20.5t127.5 -56.5q53 -37 83 -90.5t30 -114.5q0 -74 -44 -124t-122 -83q-55 -25 -124.5 -39t-147.5 -25q-2 -2 -10.5 -22.5t-8.5 -32.5q37 -70 93.5 -142.5t121.5 -135.5q45 -47 92.5 -87t90.5 -70t80.5 -47.5 t68.5 -19.5q-23 -31 -48.5 -42t-55.5 -11q-35 0 -73 17.5t-76 47t-74.5 67.5t-71.5 81q-61 76 -108.5 148.5t-69.5 115.5q-14 -43 -27.5 -93t-28.5 -103q-23 -82 -41 -162t-30 -135q-25 63 -25 147q0 43 7 89t16 96q27 127 73 253q-6 6 -15 21.5t-18.5 35t-15.5 39t-6 36.5 q27 -12 50.5 -14.5t45.5 -4.5q12 43 24.5 75t25 65.5t24.5 75.5t25 110q20 -23 20 -82q0 -37 -7 -85t-26 -138q119 14 205 55q70 31 112 70.5t42 93.5q0 49 -22.5 81.5t-59.5 53.5q-53 33 -121 42t-119 9q-59 0 -119.5 -20.5t-111.5 -55.5q-49 -33 -87 -73.5t-59 -87.5 q-6 25 -6 47z" />
<glyph unicode="S" horiz-adv-x="741" d="M-129 -35q16 -12 45 -17t66 -5q72 0 151.5 8t157.5 24q156 29 268 88q-43 37 -110.5 65t-139.5 69q-37 23 -70.5 50t-59 64t-41 85t-15.5 110q0 94 44 196.5t122 188.5q66 72 151 117t183 45q94 0 153.5 -41t63.5 -119q-33 29 -79 41t-102 12q-98 0 -179 -28.5 t-142 -79.5q-70 -59 -114 -140.5t-60 -175.5q-2 -10 -2 -19v-18q0 -84 55 -136t137 -89q51 -25 107.5 -43t111 -34.5t100.5 -33t77 -36.5q-2 -12 -31 -38t-82 -57.5t-129 -64.5t-172 -55q-68 -16 -145.5 -26.5t-165.5 -10.5q-68 0 -104 27.5t-50 76.5z" />
<glyph unicode="T" horiz-adv-x="839" d="M158 1016q0 14 2 20q4 -4 9 -7t17.5 -5t35 -3t59.5 -1q41 0 115.5 5t185.5 15q8 18 18.5 37t20.5 33q8 -14 8 -32.5t2 -35.5q27 2 64.5 3.5t68.5 1.5q135 0 210 -8.5t111.5 -19.5t44 -22.5t7.5 -17.5q-31 4 -49.5 7t-39 6t-52 4t-91.5 1q-43 0 -107.5 -2t-174.5 -10 q-41 -100 -78 -193.5t-68 -185.5q-47 -143 -75.5 -281.5t-28.5 -289.5q0 -45 7 -74t28 -29q25 0 47 41q0 -16 -9.5 -36.5t-46.5 -20.5q-59 0 -89.5 54.5t-30.5 133.5q0 131 31.5 267.5t82.5 271.5q35 90 75 174t81 162q-57 -4 -129 -13.5t-137 -9.5q-72 0 -98.5 14.5 t-26.5 45.5z" />
<glyph unicode="U" horiz-adv-x="819" d="M129 293q0 51 6 113.5t18.5 127t30 130t39.5 124.5q41 113 99.5 189t123.5 76q20 0 35 -9q-51 -35 -94 -108.5t-78 -171.5q-41 -125 -65.5 -271.5t-24.5 -273.5q0 -63 22.5 -111.5t92.5 -68.5q51 0 111.5 41t112.5 96t86 110.5t34 84.5q16 98 38.5 185t49.5 167 q76 213 170 338q41 -6 74 -35q-29 -41 -70 -130t-82 -200q-23 -59 -42 -119.5t-33.5 -114.5t-22.5 -100.5t-8 -76.5q0 -59 9 -117.5t31.5 -106t62.5 -79t99 -37.5q-37 -10 -49 -11q-31 0 -65.5 13.5t-66.5 46.5t-59.5 85t-43.5 130q-27 -43 -61 -84t-73.5 -73t-86 -52 t-97.5 -20q-111 0 -167 73.5t-56 239.5z" />
<glyph unicode="V" horiz-adv-x="462" d="M137 1038q25 -41 46.5 -86t39 -98t26.5 -119.5t9 -152.5q0 -57 -4 -125t-16 -154q20 94 45.5 193.5t62.5 193.5q33 82 73 159t89 137.5t108.5 101t133.5 53.5q-39 -31 -86.5 -83t-93.5 -116.5t-86 -137.5t-64 -147q-55 -174 -95 -349t-67 -337q-25 4 -48.5 11.5 t-31.5 17.5q6 98 10.5 199.5t4.5 206.5v83.5t-3 83.5q-4 141 -17 260t-36 205z" />
<glyph unicode="W" horiz-adv-x="905" d="M109 205q0 78 26.5 180t73.5 213q53 129 132 247t171 189q-57 -123 -116.5 -237.5t-106.5 -237.5q-35 -92 -67 -191.5t-32 -197.5q0 -53 14.5 -98t35.5 -45q57 0 135 147q47 88 101 228.5t116 332.5q4 0 9 1t13 1t19.5 -1t25.5 -3q-4 -10 -17 -53t-31.5 -101.5t-40 -125 t-39 -126t-30 -101.5t-14.5 -52q-8 -33 -8 -76q0 -80 26.5 -125t69.5 -45q39 0 76 51.5t74 139.5q43 100 80 230t67 267q29 129 52.5 246t38.5 211q14 -37 22 -71.5t8 -90.5q0 -53 -8 -126.5t-27 -186.5q-8 -55 -23 -121.5t-36.5 -137.5t-47.5 -140.5t-54 -130.5 q-43 -80 -90.5 -132.5t-102.5 -52.5q-82 0 -123 66.5t-41 165.5q0 23 6 51q-14 -27 -31.5 -54.5t-37.5 -50.5q-27 -31 -56.5 -50t-62.5 -19q-41 0 -68.5 17.5t-46 47t-26.5 67.5t-8 81z" />
<glyph unicode="X" horiz-adv-x="886" d="M20 -12q14 104 62.5 195t114.5 177q61 86 132.5 162t141.5 154q4 27 8 66.5t4 82.5q0 29 -3 58.5t-11 54.5t-21.5 40t-33.5 15q-100 0 -183 -57q-111 -72 -157 -191q-4 20 -4 35q0 61 33.5 114.5t86.5 92.5q43 33 93.5 51.5t99.5 18.5q82 0 133 -49.5t51 -161.5 q0 -45 -8 -86q35 35 73 67.5t79 65.5q59 43 122.5 79t127.5 58q-49 -47 -101.5 -98t-107.5 -107q-113 -111 -209 -221q-10 -25 -12.5 -60.5t-2.5 -70.5q0 -88 21.5 -176t68.5 -154q33 -47 78 -76.5t103 -29.5q37 0 75.5 19.5t63.5 74.5q0 -29 -14.5 -60.5t-38 -58t-54 -44 t-63.5 -17.5q-92 0 -152.5 38t-99.5 99q-37 59 -54.5 132t-17.5 151q0 80 23 166q-47 -49 -102.5 -104.5t-110.5 -119.5q-66 -76 -126 -157.5t-108 -167.5z" />
<glyph unicode="Y" horiz-adv-x="614" d="M127 289q0 98 34 205.5t77 218.5q43 106 83.5 207.5t61.5 189.5q8 -37 13 -67.5t5 -61.5q0 -76 -23.5 -149.5t-51.5 -151.5q-37 -94 -71 -193.5t-34 -210.5q0 -10 2 -35.5t8.5 -51t18.5 -46t31 -20.5q18 0 51 37t70.5 93t74.5 123.5t64 127.5q51 123 96 257t82 275 q43 4 61.5 5t36.5 1q-8 -29 -29.5 -95t-51 -158.5t-64.5 -202t-72 -223t-70.5 -223t-61.5 -202t-45 -160t-22 -95.5q-2 -12 -4 -26.5t-2 -29.5q0 -16 3 -28.5t14 -12.5q18 0 31.5 19.5t21.5 42.5q-8 -49 -28.5 -81t-67.5 -32q-37 0 -50.5 29.5t-13.5 73.5q0 31 6 67 q12 57 35 135t49.5 156t53 147.5t47.5 112.5q-23 -29 -45.5 -58.5t-48 -55t-54.5 -46t-61 -28.5q-45 2 -76 21.5t-49.5 49t-26.5 68.5t-8 82z" />
<glyph unicode="Z" horiz-adv-x="681" d="M33 133q59 94 139 213t178 236q86 104 174 194t181 150q-41 -4 -97.5 -6t-105.5 -2q-66 0 -123 -7.5t-96 -38.5q-16 37 -24.5 80t-10.5 82q23 -14 239 -26q59 -4 130 -6t159 -7q23 29 66 58q23 -27 34 -58.5t13 -81.5q-125 -47 -248 -151.5t-233 -239.5 q-70 -88 -130.5 -180t-111.5 -186q12 12 30.5 20t39 13.5t37 7.5t22.5 2q80 0 142.5 -33t113.5 -90q61 -68 106 -158t79 -182t60.5 -177t51.5 -141q-88 184 -176 339t-183 249q-51 49 -101 76t-103 27q-29 0 -57.5 -11.5t-57.5 -30t-55.5 -40t-48.5 -41.5q-33 74 -33 147z " />
<glyph unicode="[" horiz-adv-x="573" d="M27 -125q25 145 57.5 305t64 325t55 332t27.5 326l50 35q49 -8 103 -11t102.5 -6t83 -10.5t46.5 -23.5q-29 6 -63 6q-63 0 -113.5 -10t-117.5 -10q-16 -117 -38 -269.5t-48.5 -313.5t-57.5 -314.5t-63 -272.5q29 -14 55.5 -30.5t56 -31t62.5 -23.5t71 -9h33t33 4 q-14 -16 -35.5 -25.5t-38.5 -9.5q-86 0 -156.5 20.5t-140.5 20.5q-16 0 -28 -4z" />
<glyph unicode="\" horiz-adv-x="512" d="M199 1042q0 39 9 67t22.5 45t27.5 25.5t25 8.5q27 0 47 -27q-37 -4 -45.5 -25.5t-8.5 -66.5q0 -96 24 -231.5t52.5 -280.5t52 -286.5t23.5 -247.5q0 -70 -14 -123.5t-41 -67.5q2 10 3 17.5t1 11.5q0 18 -2 33.5t-4 35.5q-4 41 -18.5 124t-34 187.5t-40 221.5t-39 227.5 t-29.5 202.5t-11 149z" />
<glyph unicode="]" horiz-adv-x="573" d="M27 -111q14 -4 30.5 -5t32.5 -1q63 0 113.5 10.5t118.5 10.5q14 117 36.5 269.5t49 313t57.5 314t63 272.5q-29 14 -56.5 30.5t-56 31t-61 23.5t-71.5 9h-33t-33 -4q14 16 35.5 25.5t38.5 9.5q43 0 82 -6t74.5 -14.5t70.5 -14.5t70 -6q16 0 28 4q-25 -145 -57.5 -305 t-64 -324.5t-55 -331.5t-27.5 -327l-50 -35q-49 8 -103 11.5t-102 6.5t-83 10t-47 23z" />
<glyph unicode="^" horiz-adv-x="1353" d="M57 -39q51 6 91 31.5t72 60.5t60.5 75t57.5 79q-39 6 -76 22.5t-65.5 45t-46 68.5t-17.5 93q0 88 26.5 146.5t71.5 96.5t101.5 58.5t117 31.5t118 17.5t104.5 16.5q92 18 182 56t173 91.5t155.5 116.5t130.5 133q-53 -82 -123 -158.5t-152 -138t-170 -102.5t-178 -53 q-45 -6 -98 -8.5t-108.5 -8.5t-106.5 -21.5t-91 -49t-64.5 -90t-24.5 -142.5q0 -78 43 -132t112 -75q33 55 84 113.5t111.5 105.5t124 80t123.5 39q-121 -55 -219.5 -151.5t-176.5 -206.5q45 -102 147.5 -165t233.5 -63q80 0 138.5 37t97.5 98.5t58.5 142.5t19.5 169 q0 135 28.5 271t124.5 270q-37 -74 -59.5 -140.5t-32.5 -128t-13 -120t-3 -119.5q0 -262 -97.5 -404.5t-271.5 -142.5q-76 0 -139.5 25.5t-112.5 65.5t-84 88t-51 93q-16 -18 -42 -60t-59.5 -87t-72.5 -79t-84 -34q-16 0 -39 12.5t-29 30.5z" />
<glyph unicode="_" horiz-adv-x="1079" d="M-12 -37q0 6 2 8q14 -10 46 -17t70 -7h152q53 0 119.5 2t132 3t125 3t98.5 2q129 0 209 -7t107 -38q-43 -4 -120 -9t-167 -10.5t-185.5 -9.5t-175 -8t-133 -6t-59.5 -2q-125 0 -173 23.5t-48 72.5z" />
<glyph unicode="`" horiz-adv-x="288" d="M139 936q70 0 116 -51t85 -150q-59 0 -94 23.5t-54.5 56.5t-30 67t-22.5 54z" />
<glyph unicode="a" d="M61 135q0 78 37 156t95 147q63 76 140.5 134.5t153.5 89.5q49 -10 92.5 -37t53.5 -64q-27 -41 -54.5 -98t-54.5 -117q-20 -55 -35.5 -105.5t-15.5 -86.5q0 -61 34 -114.5t101 -53.5q-6 -14 -27.5 -19.5t-33.5 -5.5q-86 0 -119 43t-33 107q0 37 8 69q-4 0 -24.5 -30.5 t-53 -68.5t-74.5 -68.5t-87 -30.5q-27 0 -46.5 14t-31.5 37.5t-18.5 50.5t-6.5 51zM111 55q-1 -20 26 -20q33 0 81 38t95 90t87 109.5t57 94.5q10 23 20 51t19.5 57t15.5 56.5t10 48.5q-59 -29 -126.5 -80t-127.5 -119q-68 -76 -112.5 -160t-44.5 -166z" />
<glyph unicode="b" horiz-adv-x="638" d="M35 16q10 -4 28.5 -7t53.5 -3q29 0 66.5 16.5t78.5 46t83 68.5t79 86q57 72 94 153t37 161q0 27 -8 43t-18.5 25t-19.5 13.5t-11 4.5q-70 -4 -123 -35t-92 -80q-33 -39 -66 -166t-82 -307q-61 23 -72 82q10 33 30 103.5t43.5 167.5t48 211t46 231.5t37 232.5t19.5 213 q20 -20 27.5 -72.5t7.5 -122.5q0 -78 -7.5 -167t-16.5 -165.5t-16.5 -130t-9.5 -59.5q29 35 59.5 56.5t60.5 34t53.5 17.5t35.5 5q88 0 126 -49.5t38 -130.5q0 -63 -36 -159.5t-109 -182.5q-63 -74 -150.5 -125.5t-204.5 -51.5q-66 0 -85 9t-25 34z" />
<glyph unicode="c" horiz-adv-x="565" d="M53 225q0 70 26.5 142.5t74.5 136.5q49 68 116.5 111.5t143.5 43.5q88 0 131 -35.5t43 -74.5q0 -25 -13.5 -43.5t-37.5 -22.5q0 45 -36 77t-69 32q-53 0 -101 -41t-85 -102q-41 -68 -65.5 -148t-24.5 -149q0 -49 14 -87t57 -38q47 0 96.5 18t92.5 49q41 29 75.5 64 t59.5 67q-8 -33 -40 -76t-77 -77q-49 -39 -107.5 -62.5t-105.5 -23.5q-45 0 -76.5 21.5t-52 55t-30 76.5t-9.5 86z" />
<glyph unicode="d" horiz-adv-x="565" d="M35 119q0 94 45 193.5t110 174.5q8 12 33 39t55.5 55.5t62.5 53t54 31.5q23 0 53.5 -6.5t47.5 -10.5q8 29 22 78t30.5 106.5t35 120t35 118.5t31 101.5t22.5 69.5q18 10 43.5 20.5t48.5 16.5q-12 -49 -33.5 -128t-49.5 -171t-56.5 -192.5t-53 -192.5t-43 -169t-24.5 -124 q-8 -43 -14.5 -95t-6.5 -97q0 -47 10.5 -77t34.5 -30q29 0 46.5 11.5t29.5 23.5q-4 -27 -32.5 -48.5t-67.5 -21.5q-51 0 -74.5 44t-23.5 124q0 37 6 86q-18 -33 -45 -72.5t-60 -75.5t-67.5 -60.5t-69.5 -28.5q-70 12 -102.5 47t-32.5 86zM111 100q0 -18 8 -34.5t31 -16.5 q25 0 54 26.5t60 64.5t57.5 80t43.5 73q16 29 37.5 73t40 89t31.5 85t13 60q0 10 -10 10q-29 0 -58.5 -15t-58 -40t-55 -56.5t-47.5 -62.5q-27 -35 -52.5 -76t-47 -86t-34.5 -90t-13 -84z" />
<glyph unicode="e" horiz-adv-x="622" d="M57 190q0 82 43 173.5t123 179.5q39 43 80 76t84 43q35 0 71 -7.5t65.5 -24t51 -41t27.5 -61.5q-10 -43 -44 -92t-80 -91t-101 -68.5t-107 -26.5q-31 0 -55.5 11t-36.5 24q-8 -8 -24.5 -53.5t-16.5 -92.5q0 -55 37 -78.5t84 -23.5t116.5 30.5t139.5 84.5q53 41 101.5 93 t74.5 111q-16 -82 -54 -144t-93 -110q-70 -59 -145.5 -90.5t-133.5 -31.5q-59 0 -98 17t-63.5 47t-35 68t-10.5 78zM195 326q4 -8 22.5 -13.5t28.5 -5.5q18 0 62 16.5t91 45t83 69.5t36 90q0 23 -21.5 46.5t-41.5 25.5q-37 -4 -77 -39t-77 -78q-37 -45 -65.5 -87.5 t-40.5 -69.5z" />
<glyph unicode="f" horiz-adv-x="438" d="M-2 504q0 27 18 43q10 -31 52.5 -38t85.5 -7q4 41 15 101.5t28.5 130t41 143t52.5 141.5q25 51 52.5 96t59 78t69.5 52.5t81 19.5q78 0 121 -46.5t43 -138.5q0 -80 -26.5 -151.5t-74.5 -134.5q-61 -80 -149 -140.5t-193 -101.5l-8 -51q43 -10 114 -21.5t175 -27.5 q-37 -4 -64.5 -6.5t-54.5 -2.5q-47 0 -85 5.5t-85 13.5q-4 -23 -9 -76t-11 -122.5t-13.5 -147.5t-13.5 -154t-13 -141.5t-13 -106.5q-4 -37 -29 -97t-74 -120q-4 27 -4 57.5v67.5q0 104 7 236.5t16.5 254t19.5 217t16 130.5q-47 2 -75.5 6t-45 9t-21.5 12.5t-5 17.5z M276 578q92 37 173 95t135 144q75 110 75 250q0 29 -3 54.5t-12 45t-25.5 32.5t-43.5 13q-76 0 -125 -65.5t-81 -157.5q-18 -53 -31.5 -111.5t-25 -113.5t-19.5 -103.5t-17 -82.5z" />
<glyph unicode="g" horiz-adv-x="589" d="M-80 -373q0 45 20.5 83t67.5 59q-14 -29 -19 -63t-5 -66q0 -35 33.5 -64t121.5 -29q45 0 96.5 19.5t98.5 68.5q39 39 67.5 95.5t40.5 142.5q2 6 7.5 46t11.5 88t11 94t7 65q-14 -20 -31.5 -41t-39.5 -41q-43 -39 -92.5 -66.5t-100.5 -27.5q-78 0 -125 46t-47 122 q0 72 29.5 149.5t87.5 147.5q55 70 133 123t172 73q29 -4 60.5 -10t52.5 -14q2 -29 2 -58.5v-62.5q0 -82 -5.5 -173t-13.5 -181.5t-18.5 -175.5t-20.5 -152q-27 -166 -112 -248q-49 -45 -123 -67.5t-185 -22.5q-29 0 -60.5 10t-58 28.5t-45 44t-18.5 58.5zM109 131 q0 -14 2 -32.5t10 -34t22 -25.5t37 -10q35 0 89.5 35.5t105.5 87.5q39 41 66.5 81.5t35.5 73.5q6 31 11.5 82t5.5 98q0 37 -5.5 66t-19.5 39q-18 0 -46 -16.5t-59.5 -43t-66.5 -62.5t-68 -75q-51 -66 -85.5 -135.5t-34.5 -128.5z" />
<glyph unicode="h" horiz-adv-x="612" d="M31 35q2 8 9 47t17.5 91t22.5 112.5t22.5 116t19.5 96.5t13 55q25 119 54.5 228.5t56.5 203.5q37 135 65.5 232.5t38.5 138.5q49 -25 49 -92q0 -8 -1 -17.5t-3 -19.5q-12 -78 -28.5 -148.5t-36.5 -140.5q-31 -117 -66 -238.5t-61 -281.5q25 51 61.5 96t75.5 78t75.5 51.5 t63.5 18.5q37 0 62.5 -13.5t42 -36t23.5 -51.5t7 -59q0 -57 -13 -112.5t-29.5 -104.5t-31 -89t-16.5 -67q-8 -33 -8 -72q0 -31 6 -49t23 -18q18 0 33.5 9t39.5 42q-20 -53 -47.5 -70.5t-52.5 -17.5q-14 0 -31.5 5t-32 18.5t-24.5 38t-10 65.5q0 20 6 55q12 90 25.5 156.5 t23.5 116t17.5 83t7.5 58.5q0 35 -27 35q-33 0 -65.5 -28t-65.5 -71q-39 -59 -75 -132.5t-65.5 -146.5t-50 -132.5t-28.5 -89.5q-25 8 -51.5 20t-40.5 31z" />
<glyph unicode="i" horiz-adv-x="309" d="M53 164q0 86 35 190q29 86 70 166.5t82 141.5q55 -10 77 -41q-47 -88 -76.5 -170t-47.5 -152q-29 -127 -29 -195q0 -31 5 -50t17 -19q23 0 45.5 19.5t44 47t38 59.5t26.5 58q2 -6 2 -26q0 -29 -12.5 -62t-35 -63.5t-53 -56t-67.5 -38.5q-59 0 -90 58.5t-31 132.5z M279 926q0 37 8 70.5t16 64.5q14 39 26.5 71t16.5 50q39 0 60.5 -28t21.5 -58q0 -35 -13.5 -69t-31.5 -69q-18 -37 -34.5 -71.5t-26.5 -69.5q-25 8 -34 39t-9 70z" />
<glyph unicode="j" horiz-adv-x="258" d="M-188 -383q0 47 16 89t37 65q-2 -18 -3 -35t-1 -33q0 -61 18.5 -102t59.5 -41q51 0 83.5 21.5t53.5 58.5q27 47 35 104t8 98q0 53 -4 112.5t-8.5 121t-8.5 120t-4 107.5q0 27 3 69t11.5 90t22.5 98t37 97q53 -4 90 -36q-12 -41 -22.5 -94.5t-17.5 -110t-11 -110.5t-4 -97 q0 -104 8 -197.5t8 -199.5q0 -61 -8 -133t-47 -117q-29 -35 -69 -56.5t-83 -21.5q-35 0 -69.5 8t-64.5 24.5t-48 41t-18 59.5zM229 926q0 37 7.5 69.5t15.5 63.5q14 41 27.5 72t17.5 51q39 0 59.5 -28t20.5 -58q0 -29 -9.5 -58.5t-23.5 -60.5q-20 -41 -40.5 -81t-31.5 -79 q-25 8 -34 39t-9 70z" />
<glyph unicode="k" horiz-adv-x="536" d="M23 -39l8 40t14 74t18.5 98t20.5 114q16 90 32.5 183t31 176t25.5 147.5t17 95.5q23 154 39.5 274.5t16.5 190.5q47 0 67.5 -53.5t20.5 -145.5q0 -66 -8.5 -145.5t-22.5 -171.5q-29 -174 -59.5 -318.5t-48.5 -255.5q61 39 115.5 93.5t99.5 111.5q47 66 79.5 132.5 t40.5 121.5q45 -51 45 -113q0 -51 -27.5 -103t-68.5 -99q-45 -51 -93 -93.5t-85 -66.5q33 -4 59.5 -24.5t49.5 -47.5q20 -25 39.5 -51.5t39 -50t43 -37.5t54.5 -14q27 0 61 10q-39 -31 -71.5 -45.5t-57.5 -14.5q-27 0 -47 10.5t-39 26.5q-47 39 -96 88t-125 76 q-14 0 -22.5 -5t-18.5 -13q-16 -59 -52 -117.5t-95 -77.5z" />
<glyph unicode="l" horiz-adv-x="272" d="M76 109q0 41 6 91t16 115q18 117 49 236t68 235q49 160 93 302.5t65 267.5q30 -70 30 -149v-5q0 -27 -3 -52.5t-5 -51.5q-8 -41 -33.5 -139.5t-57.5 -217.5q-29 -104 -55 -203.5t-36 -160.5q-2 -23 -8 -62t-12.5 -83t-10.5 -88t-4 -76q0 -61 17 -62q14 0 29.5 11.5 t30.5 26.5t28.5 32.5t20.5 27.5q-8 -59 -45.5 -97t-80.5 -38q-59 0 -80.5 35t-21.5 105z" />
<glyph unicode="m" horiz-adv-x="780" d="M8 4q8 55 28.5 126t43 148.5t44 157.5t32.5 156q6 27 6 55q0 37 -12.5 63.5t-43.5 41.5q49 -4 82 -32t33 -104q0 -62 -26 -141q25 37 49 70t49.5 58.5t53.5 40.5t59 15q63 0 78.5 -29.5t15.5 -74.5q27 43 61.5 70.5t77.5 27.5q37 0 62.5 -18.5t40 -49t20.5 -72.5t6 -89 q0 -63 -8 -131t-20.5 -134.5t-27 -130t-24.5 -116.5q-18 6 -35.5 14t-36.5 23q20 117 42 245t22 232q0 63 -11.5 115.5t-31.5 66.5q-72 -45 -110 -116.5t-62 -153.5q-14 -41 -39 -119t-68 -194q-18 2 -39.5 11t-42.5 23q27 68 54.5 147t48.5 152q16 63 26.5 116.5t10.5 90.5 q0 41 -15 56q-86 -53 -136 -132t-81 -172q-33 -98 -56.5 -192t-45.5 -176q-35 12 -74 55z" />
<glyph unicode="n" horiz-adv-x="542" d="M35 -12q10 47 26.5 114.5t30.5 141.5q16 86 28.5 169t12.5 148q0 53 -14.5 95t-48.5 71q80 -10 108.5 -56t28.5 -108q0 -25 -4 -51.5t-10 -52.5q18 41 38.5 76.5t46 61.5t60.5 41t84 15q66 0 88 -56t22 -138q0 -41 -3 -81t-7 -81q-12 -86 -34.5 -168t-63.5 -147 q-23 8 -46.5 26.5t-31.5 36.5q20 66 37.5 134.5t30.5 137.5q0 8 2 33t5 55.5t6 66.5t3 67q0 33 -4 55t-12 22q-29 0 -56.5 -24.5t-50 -57t-38 -67.5t-21.5 -53q-20 -47 -36.5 -96.5t-27.5 -100.5q-16 -70 -28.5 -138t-24.5 -134q-25 4 -52.5 15t-43.5 28z" />
<glyph unicode="o" horiz-adv-x="669" d="M45 197q0 78 44 179t122 187q39 47 85 76t97 29q59 0 108.5 -21.5t85.5 -58.5t55.5 -86t19.5 -105q0 -74 -32 -145.5t-85 -130.5q-57 -63 -131 -103.5t-150 -40.5q-106 0 -162.5 60.5t-56.5 159.5zM115 160q0 -45 22.5 -77t81.5 -32q78 0 145.5 39t116.5 98 q43 53 68.5 115t25.5 121q0 66 -29.5 116t-103.5 50q-39 0 -79.5 -26.5t-81.5 -69.5q-35 -37 -65 -81t-52.5 -89t-35.5 -87t-13 -77z" />
<glyph unicode="p" horiz-adv-x="557" d="M-33 -438q0 20 2 26l58 379q14 90 27.5 180.5t23.5 170t16 146t6 109.5v23.5t-2 19.5q29 -20 48.5 -67t19.5 -92q39 78 92 127t148 69q45 0 73.5 -21.5t44 -54t20.5 -68.5t5 -67q0 -49 -9.5 -100t-24.5 -99t-34.5 -89t-42.5 -70q-37 -47 -90 -72.5t-131 -25.5 q-51 0 -94 20q-23 -154 -43.5 -290t-42.5 -259q-37 14 -53.5 42t-16.5 63zM139 59q143 18 232 107q63 63 94 146t31 175q0 37 -13.5 68t-52.5 31q-45 0 -89 -28t-80 -67.5t-60.5 -82.5t-30.5 -74q-8 -68 -19.5 -137.5t-11.5 -137.5z" />
<glyph unicode="q" horiz-adv-x="536" d="M27 141q0 111 46 206t117 165q70 70 150.5 110t148.5 40q43 0 67 -13.5t38 -32.5q-31 14 -72 15q-72 0 -145.5 -47t-132.5 -119q-66 -78 -108 -169t-42 -173q0 -27 9.5 -50.5t33.5 -23.5q31 0 62.5 22.5t64.5 55.5q41 45 79 96t58 82q39 59 70 136t45 139q20 0 42 -4.5 t30 -16.5q-63 -193 -124 -401.5t-93 -417.5q-6 -37 -11.5 -82t-5.5 -80q0 -49 13 -49q10 0 19 16.5t13 36.5q2 -6 2 -28q0 -25 -12 -47.5t-39 -22.5q-37 0 -51 37t-14 90q0 68 12 145q12 104 38.5 213t61.5 213q-20 -29 -44.5 -56.5t-51.5 -51.5q-37 -33 -79 -53.5 t-79 -20.5q-12 0 -31.5 6t-38 21.5t-32.5 43t-14 70.5z" />
<glyph unicode="r" horiz-adv-x="389" d="M43 78q0 57 8 121.5t21 132.5q14 78 31.5 154.5t33.5 148.5q18 -12 25.5 -45t7.5 -70q0 -43 -6 -69q37 68 94 124q53 53 118.5 84t137.5 31q27 0 61 -6q-88 -20 -154.5 -66.5t-117.5 -111.5q-39 -51 -68.5 -107.5t-52.5 -117.5q-25 -66 -40 -134.5t-25 -136.5 q-2 -12 -3 -22.5t-1 -18.5q0 -18 6 -24q-6 -6 -17 -6q-37 0 -48 42t-11 97z" />
<glyph unicode="s" horiz-adv-x="399" d="M-78 -61q0 43 45 57q-10 -10 -10 -31q0 -16 29 -16q23 0 58.5 8t74.5 20q43 14 85 32t77 34q-25 16 -59 45t-66 66q-35 41 -59.5 91t-24.5 105q0 29 11 61.5t30.5 65.5t45 63.5t56.5 55.5q35 27 74 43t80 16q72 0 99.5 -21.5t27.5 -41.5v-6q-21 4 -29 4q-43 0 -94 -16.5 t-99 -49.5q-59 -37 -101 -92t-42 -117q0 -31 26.5 -67.5t63.5 -75.5q45 -47 92 -90t78 -74q-41 -33 -103.5 -61.5t-127.5 -46.5q-47 -14 -89 -20.5t-71 -6.5q-35 0 -56.5 20.5t-21.5 45.5z" />
<glyph unicode="t" horiz-adv-x="399" d="M-47 684q18 -6 45 -11t54.5 -10.5t53 -7.5t41.5 -2q29 59 55.5 115.5t47.5 112.5q57 133 86 260q22 -39 22 -92q0 -49 -10 -100q-10 -50 -26 -99q-20 -59 -42 -109.5t-34 -87.5q29 0 71 5.5t89 5.5q41 0 77.5 -8.5t63.5 -30.5q-82 -4 -163 -22.5t-159 -27.5 q-10 -47 -25.5 -91t-28.5 -91t-23.5 -99t-10.5 -116q0 -27 3 -52.5t12 -43.5q14 -45 47 -45q14 0 39.5 29.5t48.5 70.5q31 53 51 111.5t20 101.5q0 16 -1 31.5t-5 32.5q39 -27 39 -105q0 -27 -6 -65q-4 -27 -18.5 -65t-38.5 -75q-31 -51 -76 -90t-94 -39q-51 0 -86 29 q-25 20 -33 52t-8 71q0 129 32.5 235.5t65.5 217.5q-27 2 -57.5 8t-57 18t-44 31.5t-17.5 46.5z" />
<glyph unicode="u" horiz-adv-x="485" d="M41 158q0 27 11 92t38 145q25 74 57.5 147.5t79.5 129.5q25 -25 27 -62q-20 -57 -40.5 -120.5t-39.5 -131.5q-18 -57 -27.5 -117.5t-9.5 -115.5q0 -37 12.5 -69.5t49.5 -43.5q47 41 78.5 94.5t54.5 114.5q20 51 33.5 106.5t22.5 107.5t15.5 98.5t10.5 82.5q24 9 61 9 q16 0 37 -4q-10 -55 -21.5 -119t-20.5 -130.5t-15 -132t-6 -120.5q0 -57 13 -106.5t60 -75.5q-29 -12 -47 -13q-29 0 -48 18.5t-33.5 46t-23 58.5t-12.5 55q-10 -20 -30.5 -41.5t-46 -40t-54 -29.5t-53.5 -11q-39 0 -64.5 15t-41 39.5t-21.5 56.5t-6 67z" />
<glyph unicode="v" horiz-adv-x="374" d="M57 643q31 -27 52.5 -70t33.5 -96q20 -82 21 -180q0 -49 -6 -98q27 115 78 239q49 102 123.5 178t189.5 93q-29 -18 -66 -51t-71.5 -74t-65.5 -87t-47 -94q-41 -111 -64.5 -225.5t-35.5 -212.5q-18 4 -49 12.5t-44 12.5q-4 78 -5 175t-9 195q-6 86 -14.5 160t-20.5 123z " />
<glyph unicode="w" horiz-adv-x="796" d="M49 205q0 49 8.5 104.5t26.5 110.5q20 61 51 119.5t74 109.5q2 0 18.5 -8t18.5 -12q-20 -51 -41 -112.5t-37 -129.5q-14 -61 -25.5 -124.5t-11.5 -125.5q0 -47 8 -82t31 -35q18 0 39.5 16.5t44.5 43.5q31 37 61.5 86t53.5 96q8 57 24.5 113.5t36.5 111.5 q20 -8 26.5 -29.5t6.5 -51.5q0 -47 -7 -104.5t-7 -115.5q0 -27 4 -56.5t14 -55.5q8 -29 23.5 -47.5t33.5 -18.5q35 0 60.5 27.5t46.5 70.5q25 55 37 117t12 92q0 115 -62 207q-61 96 -163 146q20 8 37.5 12t37.5 4q72 0 120 -28.5t79 -75.5q33 -49 45 -109.5t12 -120.5 q0 -25 -4 -58.5t-14 -72.5t-25.5 -79t-35.5 -77q-31 -43 -70 -71.5t-96 -28.5q-49 0 -84 21.5t-58 56.5q-37 57 -37 137q-16 -31 -37.5 -64.5t-45.5 -64.5q-29 -31 -57.5 -52.5t-57.5 -21.5q-31 0 -52.5 21.5t-35 54.5t-20.5 74t-7 80z" />
<glyph unicode="x" horiz-adv-x="493" d="M-61 -47q0 68 61 164q23 35 51.5 72.5t63.5 76.5q-4 43 -5 93.5t-1 93.5q0 37 2 71.5t2 63.5v22.5t-2 22.5q39 -8 48 -44t9 -89q0 -109 6 -170q39 47 86 94t96 90q66 55 128.5 101.5t109.5 74.5q8 -16 8 -37q0 -25 -14.5 -50t-38 -50t-53 -48.5t-58.5 -45.5 q-55 -41 -116.5 -95.5t-122.5 -119.5q10 -16 25.5 -53t37.5 -74q25 -43 53.5 -76t59.5 -33q12 0 22.5 11.5t17.5 26.5t10 32.5t3 30.5q14 -27 14 -56q0 -23 -14 -47t-51 -24q-45 0 -93 27.5t-87 70.5q-41 45 -58 98q-78 -78 -116.5 -137t-47.5 -100q0 -4 1 -7.5t1 -9.5 q12 0 32 14.5t30 14.5q-4 -14 -23.5 -27.5t-27.5 -13.5q-49 0 -49 41z" />
<glyph unicode="y" horiz-adv-x="475" d="M2 76q0 55 21.5 115.5t54.5 122t68.5 122t64.5 117.5q31 66 43 115q20 -55 20 -115q0 -35 -7 -65.5t-19 -59.5q-20 -49 -49 -93t-55.5 -88t-45 -89t-18.5 -97q0 -14 7 -24t13 -10q10 0 37 22.5t56.5 53t56 60.5t37.5 46q20 57 47.5 128t55.5 140.5t53.5 131t43.5 100.5 h37q16 0 29.5 -1t24.5 -3q-61 -154 -118 -305.5t-110 -311.5q-23 -66 -39 -124t-28 -114q-12 -55 -19.5 -109t-11.5 -112q0 -16 8 -16t22.5 17.5t30 43t30.5 54t26 51.5q-4 -29 -16.5 -68t-30 -73.5t-37 -58t-37.5 -23.5q-41 0 -57.5 28.5t-16.5 71.5q0 86 25 207 q14 63 32.5 126.5t42.5 119.5q-14 -20 -34.5 -46t-45 -48.5t-49 -38t-49.5 -15.5q-51 0 -72.5 33t-21.5 82z" />
<glyph unicode="z" horiz-adv-x="589" d="M-14 113q0 59 42 108t105 92q61 43 132 77t128 63q43 23 73 42t36 35q-4 10 -20.5 19.5t-41 16.5t-53.5 11.5t-55 4.5q-96 0 -189 -27q-18 29 -18 66q0 16 2 22q33 10 91.5 16.5t103.5 6.5q47 0 91 -13.5t77.5 -34t53 -46t19.5 -50.5q0 -18 -13 -39.5t-33.5 -42 t-46.5 -40t-48 -33.5q-45 -29 -103.5 -62t-111.5 -69q-43 -29 -75 -63t-46 -71q0 -10 35 -15t94 -5t128 3t132.5 9t111.5 12.5t66 12.5q-23 -29 -77 -52.5t-119.5 -40t-132 -25.5t-115.5 -9q-37 0 -77 5t-72.5 18.5t-53 37t-20.5 60.5z" />
<glyph unicode="{" horiz-adv-x="598" d="M100 -66q0 55 23.5 98.5t57.5 78t73 66.5t70 67q27 31 44 64.5t17 80.5q0 25 -13.5 52.5t-23.5 37.5q-53 2 -112.5 33t-106.5 68q33 27 58.5 37t48.5 10q25 0 45 -13.5t43.5 -29t54.5 -27.5t76 -12q18 0 34.5 17.5t16.5 47.5q0 25 -12.5 49.5t-31 51t-41 54.5t-42.5 56 q-20 35 -36.5 70t-16.5 72q0 51 28.5 99t77.5 87q45 37 101.5 60.5t109.5 23.5q18 0 38.5 -4t37.5 -6q-4 -14 -27.5 -34t-38.5 -32q-12 4 -31.5 8t-66.5 4q-49 0 -96 -47q-25 -25 -40.5 -56.5t-15.5 -68.5t13.5 -67.5t34 -59t44 -55.5t44.5 -53q20 -27 31.5 -52.5 t11.5 -54.5q0 -39 -17.5 -67.5t-41 -50t-46 -33.5t-33.5 -17q16 -23 17 -59q0 -63 -25.5 -115.5t-62.5 -99.5q-29 -35 -59.5 -65.5t-57.5 -59.5t-43 -54.5t-16 -49.5q0 -45 63 -97q27 -23 62.5 -37t76.5 -14q18 0 34 12.5t25 32t14 43t5 45.5v11q31 -35 31 -76 q0 -49 -40 -95.5t-93 -62.5q-43 0 -92.5 10.5t-89.5 34.5q-39 23 -66 58.5t-27 84.5z" />
<glyph unicode="|" horiz-adv-x="317" d="M106 -92q6 59 18.5 164.5t27 230.5t31 254t29.5 237.5t22.5 181.5t11.5 83q25 180 63.5 254t91.5 78q-14 -25 -29.5 -72t-23.5 -100q-35 -258 -60.5 -454t-45 -337t-34.5 -230t-30 -135q-18 -53 -34.5 -92t-37.5 -63z" />
<glyph unicode="}" horiz-adv-x="598" d="M18 -129q0 63 62 113q-10 -18 -13.5 -38t-3.5 -38q0 -29 10.5 -48.5t37.5 -19.5q51 0 96 19.5t80 47t55 55.5t20 46q0 33 -20 70t-46 80t-46.5 94t-20.5 113q0 33 9.5 68.5t33.5 58.5q-10 4 -25.5 13t-29.5 24.5t-24.5 37t-10.5 49.5q0 39 22.5 73t55.5 66.5t73 64.5 t72.5 67t55 74.5t22.5 89.5q0 53 -31.5 88t-74.5 35q-47 0 -67.5 -4.5t-33.5 -8.5q-14 14 -29.5 31.5t-15.5 32.5q16 4 38 8t40 4q45 0 89 -18.5t77 -49t53.5 -70.5t20.5 -83q0 -63 -47 -121.5t-104.5 -111t-104.5 -101.5t-47 -94q0 -39 35 -39q43 0 77.5 12t63.5 27.5 t53.5 29t48.5 13.5q23 0 45.5 -10.5t46.5 -36.5q-59 -39 -127.5 -69t-121.5 -32q-35 -23 -54.5 -65.5t-19.5 -69.5q0 -55 24.5 -95t54 -78t54.5 -78t25 -95q0 -68 -35 -116t-87.5 -78.5t-111.5 -44t-108 -13.5q-43 14 -67 47t-24 74z" />
<glyph unicode="~" horiz-adv-x="616" d="M98 471q27 0 47.5 17.5t41 37t44 37t58.5 17.5q43 0 70.5 -10.5t43.5 -26.5q29 -23 38.5 -46.5t19.5 -23.5q6 0 15 1t20.5 8t26.5 21.5t38 41.5q2 -8 5 -23.5t3 -32.5q0 -18 -9 -31.5t-21.5 -22.5t-23.5 -14t-17 -5q-31 0 -56.5 18.5t-44 41t-31 41t-18.5 18.5 q-23 0 -47.5 -16.5t-49 -36t-50 -36t-47.5 -16.5q-45 0 -56 41z" />
<glyph horiz-adv-x="1024" />
<glyph unicode="&#xa1;" horiz-adv-x="264" d="M68 23v11t2 11q10 47 39.5 106.5t58.5 129.5q18 43 29.5 92t11.5 102q0 31 -7 51.5t-24 20.5q-12 0 -28.5 -5t-32 -12.5t-26.5 -14.5t-17 -13q4 29 39 45t80 16q70 0 92 -35.5t22 -83.5q0 -61 -13 -110t-44 -109q-37 -76 -77 -154.5t-54 -144.5q-31 23 -41 46.5t-10 50.5 zM201 813q0 27 10 53.5t25 51.5q18 31 36.5 64.5t28.5 68.5q45 -20 45 -95q0 -37 -9 -70.5t-20.5 -63t-21.5 -53.5t-12 -38q-41 0 -61.5 25.5t-20.5 56.5z" />
<glyph unicode="&#xa2;" horiz-adv-x="565" d="M100 479q0 47 25 98.5t68 94.5q76 72 182 90q14 55 22.5 96t13.5 74t7 59.5t2 52.5q31 -29 31 -96q0 -33 -5.5 -70.5t-13.5 -76.5l-4 -37q39 -2 67.5 -9t49.5 -18q39 -20 39 -47q0 -18 -9.5 -29.5t-33.5 -15.5q0 18 -13.5 31.5t-29.5 23.5q-31 18 -58 19q-20 0 -22 -2 q-20 -94 -41 -187.5t-41 -185.5q70 16 129 55t98 70q-6 -18 -28.5 -42t-54 -45.5t-71.5 -38.5t-79 -26q-8 -41 -16.5 -89t-14.5 -96t-10 -91t-4 -70v-22q-18 4 -28.5 29.5t-10.5 84.5q0 41 5 100.5t19 145.5q-47 0 -78.5 15.5t-52 40t-30 55.5t-9.5 59zM197 432 q0 -35 15 -64.5t62 -29.5q18 86 41 178t43 180q-63 -33 -104 -96q-29 -41 -43 -80t-14 -88z" />
<glyph unicode="&#xa3;" horiz-adv-x="833" d="M-47 -4q18 53 48 93t65 67q61 43 127 43q16 0 37.5 -4.5t33.5 -10.5q23 35 54.5 92.5t43.5 104.5q-25 0 -51 -2t-47 -6q-20 -4 -45.5 -3t-60.5 -28q-6 14 -6 25q0 18 6 31.5t30.5 24.5t73.5 19.5t133 16.5q18 35 37 85t46.5 120.5t68.5 163t102 208.5q37 17 70 17 q37 -4 64.5 -28t43.5 -60q16 -37 24.5 -81t8.5 -89q0 -104 -39 -195.5t-116 -130.5q41 43 66.5 116.5t25.5 159.5q0 45 -8.5 87t-26.5 77q-29 53 -72 74q-45 -74 -73.5 -139.5t-52 -128t-48 -125t-59.5 -129.5q29 2 48 3t36 1q25 0 39 -8t26 -41q-18 0 -42.5 -3t-49.5 -7.5 t-46.5 -7.5t-33.5 -3q-41 -115 -115 -233q41 -16 76 -43q31 -20 53.5 -41t46 -36t50 -25.5t67.5 -10.5q35 0 75 5t63 28l4 -8t2 -8q0 -37 -30 -60.5t-108 -23.5q-63 0 -122 26q-37 16 -70 38t-60.5 42.5t-50 36.5t-36.5 20q-8 -8 -35 -27.5t-70 -37.5q-41 -16 -96 -28.5 t-125 -12.5zM20 63q25 4 50.5 11.5t48.5 17.5q31 10 53.5 21.5t28.5 15.5q-19 14 -60 14q-35 0 -61 -20q-37 -23 -60 -60z" />
<glyph unicode="&#xa5;" horiz-adv-x="837" d="M94 365q20 0 53 -1.5t70 -4.5t73 -6t62 -7q0 90 -12 190.5t-38 195.5t-64.5 180t-90.5 145q80 -43 134.5 -101.5t86 -130t45 -154.5t13.5 -175v-42t-2 -40q98 195 203.5 354.5t244.5 290.5q27 31 58 31q43 0 43 -48v-6q0 -8 -1 -15t-5 -7q-16 0 -50 -34t-79 -89 t-95.5 -127t-100.5 -147.5t-95 -148.5t-78 -132q37 -18 76 -24.5t88 -26.5q-23 -6 -58 -6q-33 0 -66.5 3t-57.5 3q-2 -4 -7.5 -14.5t-11.5 -21.5t-10 -21.5t-4 -16.5q82 -18 227 -18q-53 -29 -93 -37.5t-93 -8.5h-26.5t-31.5 3q-14 -27 -23 -63t-14.5 -74t-7.5 -74.5 t-2 -63.5q-37 12 -50 45t-13 76q0 39 7 81t17 77q-35 -14 -69 -15q-41 0 -72 15.5t-31 46.5q0 8 2 10q33 -2 78 -4t80 -2q18 0 29.5 17.5t19.5 64.5l-2 12q-31 4 -72.5 4t-80.5 4t-68 16.5t-35 41.5z" />
<glyph unicode="&#xa7;" horiz-adv-x="688" d="M51 78q0 10 6 27.5t23 37.5q2 -43 30.5 -78.5t96.5 -35.5q41 0 96 8t104.5 26.5t83 47t33.5 69.5q0 25 -20.5 46.5t-51 37t-63.5 24.5t-57 9q-10 -2 -20.5 -2h-22.5q-37 0 -74 4t-66.5 15.5t-49 31t-19.5 47.5q0 45 24.5 74t61.5 45t82 23.5t86 7.5q14 0 38.5 -3 t48 -10.5t40 -18.5t16.5 -28q0 -12 -8 -20q0 8 -10 16t-26.5 14.5t-36 10.5t-38.5 4q-29 0 -61.5 -4t-59 -14.5t-44 -30t-17.5 -51.5q0 -23 20.5 -35.5t51.5 -12.5q57 0 110.5 8.5t92 21.5t62.5 28.5t24 32.5q0 23 -16.5 45t-39 42.5t-47 38t-41.5 27.5q-59 37 -108 91.5 t-49 119.5q0 49 29.5 90t75.5 71t102.5 46t109.5 16q29 0 57.5 -4t52 -12t38 -19.5t14.5 -25.5q0 -25 -10.5 -33t-18.5 -12q0 35 -31.5 53.5t-85.5 18.5q-35 0 -73.5 -16.5t-71.5 -43t-55.5 -62.5t-22.5 -75q0 -72 42 -120t93 -87t93 -73.5t42 -80.5q0 -31 -19 -53 t-49 -38.5t-66 -28t-68 -17.5q33 -6 69.5 -17t67.5 -28.5t51.5 -43t20.5 -60.5q0 -41 -30 -75t-77 -58.5t-103.5 -38t-109.5 -13.5q-29 0 -72 3.5t-82.5 13.5t-68.5 30.5t-29 55.5z" />
<glyph unicode="&#xa8;" horiz-adv-x="616" d="M231 836q0 18 7.5 35.5t16.5 32t17.5 26.5t8.5 20q41 0 62.5 -15t21.5 -32q0 -16 -11.5 -33.5t-25 -36t-26.5 -36t-17 -33.5q-31 4 -42.5 24.5t-11.5 47.5zM477 827q0 20 7.5 39t16.5 34t16 27.5t7 20.5q41 0 63.5 -17.5t22.5 -33.5t-10 -32.5t-24.5 -33t-27.5 -33 t-20 -34.5q-29 6 -40 22.5t-11 40.5z" />
<glyph unicode="&#xa9;" horiz-adv-x="1171" d="M84 322q0 143 63.5 279t169.5 241q92 92 205 145t236 53q20 0 46.5 -3t37.5 -9q-141 -10 -256 -68.5t-201 -150.5q-43 -47 -82 -104.5t-67.5 -122t-45 -133t-16.5 -134.5q0 -57 16.5 -108t49 -90t79 -61.5t107.5 -22.5q129 0 253 48t222 136q82 74 129 169t47 212 q0 66 -24.5 125t-67.5 105t-103.5 73t-133.5 27q-51 0 -99.5 -11.5t-77.5 -23.5q2 12 23.5 25.5t49.5 24.5t56.5 18.5t47.5 7.5q90 0 167.5 -27t134 -75t88 -116.5t31.5 -152.5q0 -68 -17 -131.5t-46 -120.5t-69 -105t-85 -85q-104 -88 -230 -130t-255 -42 q-82 0 -151.5 21.5t-121 63.5t-81 105.5t-29.5 147.5zM442 422q0 43 21.5 92t62.5 86q27 20 57.5 32.5t69.5 12.5q33 0 65 -11t32 -54q0 -16 -2 -21q-10 31 -38 43t-57 12q-45 0 -82 -43q-16 -20 -27.5 -49.5t-11.5 -68.5q0 -47 33 -67.5t58 -20.5q23 0 50 4t48 22 q-8 -25 -27.5 -40t-44 -24.5t-50.5 -13.5t-44 -4q-41 0 -77 24.5t-36 88.5z" />
<glyph unicode="&#xab;" horiz-adv-x="641" d="M102 477q16 41 88 82q31 18 66 36.5t68.5 36t62.5 35t47 35.5q-8 -43 -31.5 -73.5t-52.5 -55.5q-27 -23 -56.5 -42t-56 -37.5t-46 -37t-25.5 -42.5q20 -37 53 -74q51 -61 148 -123q-53 10 -103.5 37t-87.5 65q-33 35 -53.5 75t-20.5 83zM301 444q2 23 25.5 46.5 t56.5 50.5q29 20 61.5 42.5t65.5 44t59.5 42.5t42.5 37q-14 -70 -51 -113t-76 -76q-43 -33 -75.5 -61.5t-38.5 -65.5q12 -14 26.5 -31.5t32.5 -31.5q31 -25 72 -50.5t96 -48.5q-55 0 -112.5 20.5t-102.5 55.5q-37 31 -58.5 66t-23.5 73z" />
<glyph unicode="&#xad;" horiz-adv-x="591" d="M119 487q78 0 140.5 13.5t117.5 13.5q29 0 61.5 -1t62 -2t52 -4t33.5 -9q-158 -70 -332 -70q-45 0 -83 11.5t-52 47.5z" />
<glyph unicode="&#xae;" horiz-adv-x="1175" d="M84 322q0 129 53 251.5t142 227.5q94 106 218 172.5t261 66.5q20 0 46.5 -3t37.5 -9q-160 -12 -284 -84t-216 -182q-70 -90 -119 -209t-49 -238q0 -57 16.5 -108t49 -90t79 -61.5t107.5 -22.5q129 0 251 47t220 133q86 74 133 171t47 214q0 66 -24.5 125t-67.5 105 t-103.5 73t-133.5 27q-51 0 -99.5 -11.5t-77.5 -23.5q2 12 23.5 25.5t49.5 24.5t56.5 18.5t47.5 7.5q90 0 167.5 -27t134 -75t88 -116.5t31.5 -152.5q0 -141 -66.5 -258t-158.5 -193q-104 -86 -228 -124.5t-249 -38.5q-82 0 -151.5 21.5t-121 63.5t-81 105.5t-29.5 147.5z M383 676q25 10 53.5 26.5t60 33t65.5 27.5t67 11q39 0 74.5 -12t63.5 -33.5t44 -50.5t16 -62q0 -35 -17 -57t-48 -37.5t-71 -26t-85 -18.5q6 -20 39 -54t74 -67.5t80 -59.5t59 -30q-25 -10 -45 -10q-35 0 -75 17.5t-76.5 45t-68.5 62.5t-52 70q-27 -27 -47.5 -75t-24.5 -83 q-29 10 -29 47q0 33 18.5 79t42 95t48 99.5t37.5 91.5q12 -23 12 -52q0 -33 -9 -62.5t-20 -55.5q86 0 140.5 31.5t54.5 68.5q0 47 -32.5 72.5t-69.5 25.5q-49 0 -93.5 -17.5t-91.5 -51.5q-41 -29 -51 -29q-27 0 -43 41z" />
<glyph unicode="&#xb4;" horiz-adv-x="303" d="M104 713q23 8 43.5 27.5t42 44t44 52t49.5 52.5q25 23 52 39t60 20q-25 -61 -65.5 -113.5t-81.5 -86.5q-33 -23 -60.5 -37.5t-48.5 -14.5q-8 0 -19 3t-16 14z" />
<glyph unicode="&#xb6;" horiz-adv-x="819" d="M98 657q0 45 29 94.5t78 96.5q41 39 93 72.5t112.5 60.5t127 42t134.5 15q100 0 165.5 -38.5t65.5 -90.5q0 -29 -12 -37q-8 61 -67.5 100.5t-133.5 39.5q-57 0 -113.5 -18.5t-107.5 -48.5t-96 -67.5t-80 -76.5q-53 -57 -79 -101.5t-26 -91.5q0 -20 8.5 -31.5t30 -17.5 t58.5 -9t96 -5q20 51 50 114.5t67 161.5q2 -8 3 -16t1 -19q0 -23 -4 -53.5t-11.5 -61t-14.5 -59t-13 -47.5q72 12 114 39q25 47 41.5 82t27.5 62.5t20.5 50t21.5 45.5q6 -25 6 -47q0 -35 -9 -74t-24 -90q23 6 35.5 12t25.5 14.5t33.5 19.5t59.5 30q-12 -31 -63.5 -64 t-100.5 -61q-59 -168 -105 -337t-83 -331q-27 20 -36 53t-9 72q0 51 15 114.5t36.5 131t44 134t35.5 124.5q-20 -14 -94 -29q-51 -129 -99.5 -305t-91.5 -361q-25 63 -24 142q0 55 12 121.5t30.5 134t41 134.5t42.5 124q-47 0 -94 7t-85 23.5t-61.5 46t-23.5 74.5z" />
<glyph unicode="&#xb8;" horiz-adv-x="356" d="M-23 -250q10 -2 17.5 -2h13.5q70 0 104.5 34t34.5 126q0 68 -18 115q37 -20 66.5 -61.5t29.5 -102.5q0 -41 -14 -72t-36.5 -50.5t-49.5 -29.5t-51 -10q-31 0 -61.5 16.5t-35.5 36.5z" />
<glyph unicode="&#xbb;" horiz-adv-x="641" d="M121 215q10 49 31.5 84t48.5 61q27 27 54.5 48.5t50 41t37.5 39t19 41.5q-27 39 -77 78q-57 45 -150 84q90 0 174 -49q53 -31 88 -74t37 -92q-8 -35 -60 -77t-114 -81q-43 -29 -79.5 -55t-59.5 -49zM299 219q12 47 39 80t57 59q57 37 108.5 72t63.5 76q-23 43 -63 90 q-27 25 -59.5 52.5t-77.5 56.5q90 -16 168 -80q45 -37 71.5 -85t26.5 -96q-14 -35 -69.5 -68.5t-119.5 -66.5q-43 -23 -82.5 -45t-62.5 -45z" />
<glyph unicode="&#xbf;" horiz-adv-x="585" d="M-41 137q0 74 58.5 143.5t136.5 133.5q68 53 136 100t113 84q-59 -4 -118.5 -25.5t-108.5 -52.5q2 14 18.5 37t44 45.5t64.5 42t80 27.5q12 -2 30.5 -10.5t36 -18.5t32 -20.5t20.5 -16.5q-14 -33 -47 -62.5t-76 -58t-93 -56.5t-96 -54q-76 -45 -130 -93.5t-54 -105.5 q0 -37 17.5 -65.5t46.5 -49.5q63 -41 149 -41q37 0 97.5 8.5t123.5 30.5q61 20 116.5 53t92.5 85q-10 -59 -53 -111.5t-109 -89.5q-55 -33 -123.5 -51.5t-138.5 -18.5q-63 0 -115.5 20.5t-89.5 55.5q-61 57 -61 135zM328 803q0 35 18 76t43 80.5t37 82.5q45 -20 45 -94 q0 -49 -14 -92q-12 -43 -27.5 -78t-19.5 -53q-39 0 -60.5 24.5t-21.5 53.5z" />
<glyph unicode="&#xc0;" horiz-adv-x="702" d="M70 55q0 70 30.5 156t69.5 190q12 37 32.5 87.5t47 106.5t57.5 116.5t66 115.5q59 92 127.5 156t144.5 64q51 0 69.5 -30t18.5 -73q0 -35 -10 -90t-23.5 -121.5t-27 -140.5t-19.5 -148q43 4 94.5 5.5t83.5 1.5h23q-41 -20 -87 -32.5t-124 -39.5q-2 -35 -3 -69t-1 -66 q0 -117 19.5 -188.5t66.5 -71.5q16 0 33.5 13t25.5 34q6 -4 7 -19q0 -14 -15.5 -37.5t-62.5 -23.5q-55 0 -89 25.5t-53.5 67.5t-25.5 97.5t-6 114.5q0 27 1 51t3 51q-35 -12 -86 -24t-105 -12q-70 0 -116 20q-31 -100 -49.5 -180t-18.5 -135q0 -39 12 -60q-47 0 -78.5 20.5 t-31.5 67.5zM250 393q53 0 129 6t168 33q0 61 19.5 150.5t43 174.5t43 150.5t19.5 77.5q0 29 -19 29q-57 0 -113.5 -60.5t-107.5 -152.5q-31 -55 -58.5 -112.5t-51 -112t-42 -102.5t-30.5 -81zM551 1313q70 0 116 -51t85 -150q-59 0 -94 23.5t-54.5 56.5t-30 67t-22.5 54z " />
<glyph unicode="&#xc1;" horiz-adv-x="702" d="M70 55q0 70 30.5 156t69.5 190q12 37 32.5 87.5t47 106.5t57.5 116.5t66 115.5q59 92 127.5 156t144.5 64q51 0 69.5 -30t18.5 -73q0 -35 -10 -90t-23.5 -121.5t-27 -140.5t-19.5 -148q43 4 94.5 5.5t83.5 1.5h23q-41 -20 -87 -32.5t-124 -39.5q-2 -35 -3 -69t-1 -66 q0 -117 19.5 -188.5t66.5 -71.5q16 0 33.5 13t25.5 34q6 -4 7 -19q0 -14 -15.5 -37.5t-62.5 -23.5q-55 0 -89 25.5t-53.5 67.5t-25.5 97.5t-6 114.5q0 27 1 51t3 51q-35 -12 -86 -24t-105 -12q-70 0 -116 20q-31 -100 -49.5 -180t-18.5 -135q0 -39 12 -60q-47 0 -78.5 20.5 t-31.5 67.5zM250 393q53 0 129 6t168 33q0 61 19.5 150.5t43 174.5t43 150.5t19.5 77.5q0 29 -19 29q-57 0 -113.5 -60.5t-107.5 -152.5q-31 -55 -58.5 -112.5t-51 -112t-42 -102.5t-30.5 -81zM505 1090q23 8 43.5 27.5t42 44t44 52t49.5 52.5q25 23 52 39t60 20 q-25 -61 -65.5 -113.5t-81.5 -86.5q-33 -23 -60.5 -37.5t-48.5 -14.5q-8 0 -19 3t-16 14z" />
<glyph unicode="&#xc2;" horiz-adv-x="702" d="M70 55q0 70 30.5 156t69.5 190q12 37 32.5 87.5t47 106.5t57.5 116.5t66 115.5q59 92 127.5 156t144.5 64q51 0 69.5 -30t18.5 -73q0 -35 -10 -90t-23.5 -121.5t-27 -140.5t-19.5 -148q43 4 94.5 5.5t83.5 1.5h23q-41 -20 -87 -32.5t-124 -39.5q-2 -35 -3 -69t-1 -66 q0 -117 19.5 -188.5t66.5 -71.5q16 0 33.5 13t25.5 34q6 -4 7 -19q0 -14 -15.5 -37.5t-62.5 -23.5q-55 0 -89 25.5t-53.5 67.5t-25.5 97.5t-6 114.5q0 27 1 51t3 51q-35 -12 -86 -24t-105 -12q-70 0 -116 20q-31 -100 -49.5 -180t-18.5 -135q0 -39 12 -60q-47 0 -78.5 20.5 t-31.5 67.5zM250 393q53 0 129 6t168 33q0 61 19.5 150.5t43 174.5t43 150.5t19.5 77.5q0 29 -19 29q-57 0 -113.5 -60.5t-107.5 -152.5q-31 -55 -58.5 -112.5t-51 -112t-42 -102.5t-30.5 -81zM458 1139q27 4 60 32.5t69 73.5q31 37 59.5 80t55.5 84l62 -12q0 -45 -1 -76.5 t-1 -46.5q0 -29 3 -58.5t14 -55t30.5 -47t50.5 -33.5q-57 2 -91 24.5t-50 59.5q-12 27 -17.5 59.5t-5.5 69.5v18h-2q-10 -18 -27.5 -46t-38.5 -56q-29 -37 -60.5 -66t-61.5 -29q-27 0 -48 25z" />
<glyph unicode="&#xc3;" horiz-adv-x="702" d="M70 55q0 70 30.5 156t69.5 190q12 37 32.5 87.5t47 106.5t57.5 116.5t66 115.5q59 92 127.5 156t144.5 64q51 0 69.5 -30t18.5 -73q0 -35 -10 -90t-23.5 -121.5t-27 -140.5t-19.5 -148q43 4 94.5 5.5t83.5 1.5h23q-41 -20 -87 -32.5t-124 -39.5q-2 -35 -3 -69t-1 -66 q0 -117 19.5 -188.5t66.5 -71.5q16 0 33.5 13t25.5 34q6 -4 7 -19q0 -14 -15.5 -37.5t-62.5 -23.5q-55 0 -89 25.5t-53.5 67.5t-25.5 97.5t-6 114.5q0 27 1 51t3 51q-35 -12 -86 -24t-105 -12q-70 0 -116 20q-31 -100 -49.5 -180t-18.5 -135q0 -39 12 -60q-47 0 -78.5 20.5 t-31.5 67.5zM250 393q53 0 129 6t168 33q0 61 19.5 150.5t43 174.5t43 150.5t19.5 77.5q0 29 -19 29q-57 0 -113.5 -60.5t-107.5 -152.5q-31 -55 -58.5 -112.5t-51 -112t-42 -102.5t-30.5 -81zM414 1184q31 0 53.5 22.5t46.5 45.5q18 16 40 28.5t52 12.5q55 0 85 -16.5 t46.5 -37t23.5 -37t15 -16.5q16 0 37 10.5t64 61.5q4 -8 6 -23.5t2 -31.5q0 -18 -9.5 -31.5t-20.5 -23t-23.5 -14.5t-18.5 -5q-31 0 -55.5 18.5t-42.5 41t-31.5 41t-19.5 18.5q-20 0 -45 -16.5t-49 -37.5q-27 -20 -51.5 -35.5t-49.5 -15.5q-45 0 -55 41z" />
<glyph unicode="&#xc4;" horiz-adv-x="702" d="M70 55q0 70 30.5 156t69.5 190q12 37 32.5 87.5t47 106.5t57.5 116.5t66 115.5q59 92 127.5 156t144.5 64q51 0 69.5 -30t18.5 -73q0 -35 -10 -90t-23.5 -121.5t-27 -140.5t-19.5 -148q43 4 94.5 5.5t83.5 1.5h23q-41 -20 -87 -32.5t-124 -39.5q-2 -35 -3 -69t-1 -66 q0 -117 19.5 -188.5t66.5 -71.5q16 0 33.5 13t25.5 34q6 -4 7 -19q0 -14 -15.5 -37.5t-62.5 -23.5q-55 0 -89 25.5t-53.5 67.5t-25.5 97.5t-6 114.5q0 27 1 51t3 51q-35 -12 -86 -24t-105 -12q-70 0 -116 20q-31 -100 -49.5 -180t-18.5 -135q0 -39 12 -60q-47 0 -78.5 20.5 t-31.5 67.5zM250 393q53 0 129 6t168 33q0 61 19.5 150.5t43 174.5t43 150.5t19.5 77.5q0 29 -19 29q-57 0 -113.5 -60.5t-107.5 -152.5q-31 -55 -58.5 -112.5t-51 -112t-42 -102.5t-30.5 -81zM503 1198q0 18 7.5 35.5t16.5 32t17.5 26.5t8.5 20q41 0 62.5 -15t21.5 -32 q0 -16 -11.5 -33.5t-25 -36t-26.5 -36t-17 -33.5q-31 4 -42.5 24.5t-11.5 47.5zM749 1189q0 20 7.5 39t16.5 34t16 27.5t7 20.5q41 0 63.5 -17.5t22.5 -33.5t-10 -32.5t-24.5 -33t-27.5 -33t-20 -34.5q-29 6 -40 22.5t-11 40.5z" />
<glyph unicode="&#xc5;" horiz-adv-x="702" d="M70 55q0 70 30.5 156t69.5 190q12 37 32.5 87.5t47 106.5t57.5 116.5t66 115.5q59 92 127.5 156t144.5 64q51 0 69.5 -30t18.5 -73q0 -35 -10 -90t-23.5 -121.5t-27 -140.5t-19.5 -148q43 4 94.5 5.5t83.5 1.5h23q-41 -20 -87 -32.5t-124 -39.5q-2 -35 -3 -69t-1 -66 q0 -117 19.5 -188.5t66.5 -71.5q16 0 33.5 13t25.5 34q6 -4 7 -19q0 -14 -15.5 -37.5t-62.5 -23.5q-55 0 -89 25.5t-53.5 67.5t-25.5 97.5t-6 114.5q0 27 1 51t3 51q-35 -12 -86 -24t-105 -12q-70 0 -116 20q-31 -100 -49.5 -180t-18.5 -135q0 -39 12 -60q-47 0 -78.5 20.5 t-31.5 67.5zM250 393q53 0 129 6t168 33q0 61 19.5 150.5t43 174.5t43 150.5t19.5 77.5q0 29 -19 29q-57 0 -113.5 -60.5t-107.5 -152.5q-31 -55 -58.5 -112.5t-51 -112t-42 -102.5t-30.5 -81zM567 1172q0 33 14.5 70.5t41 70.5t66.5 55.5t91 22.5q2 -8 18.5 -16.5t35 -22.5 t33.5 -38t15 -62q0 -31 -11 -65t-33.5 -63.5t-55.5 -48t-74 -18.5q-141 10 -141 115zM643 1151q0 -27 16 -37q33 0 61.5 16.5t49 40t32 50t11.5 49.5q0 31 -13.5 42t-21.5 11q-20 0 -44 -12t-44.5 -34.5t-33.5 -54.5t-13 -71z" />
<glyph unicode="&#xc6;" horiz-adv-x="1007" d="M27 82q10 18 25.5 67.5t37 117t48 147.5t57.5 161q45 113 99 214.5t120 164.5h-103q-31 0 -55.5 11.5t-36.5 44.5l121 16q33 4 115 9t172 5q238 0 352.5 -32.5t132.5 -85.5q-29 8 -82 13t-118.5 9t-139.5 6t-141 2q-51 -154 -80 -253t-43 -150q129 6 242.5 7t236.5 5 q-16 -98 -50 -214t-93 -208q-45 -70 -108.5 -121t-155.5 -71h-19q-59 0 -100 21.5t-66.5 56t-37 82t-11.5 98.5q0 25 2 48t6 48q16 98 43 162q-51 -4 -91 -6t-66 -2q-35 -94 -52.5 -145.5t-27.5 -80t-16.5 -44t-18.5 -40.5q-14 -29 -34.5 -48t-45.5 -19q-6 0 -18 4zM266 537 q33 0 72 3t86 5q45 129 79 227t58 170l6 14h-78q-76 -94 -128 -206.5t-95 -212.5zM446 195q0 -63 25 -117.5t96 -87.5q70 18 130.5 65t107.5 113q35 47 63.5 98t50 101.5t36 98.5t20.5 87q-55 -12 -108.5 -27.5t-110 -28t-122 -21.5t-147.5 -9q-12 -59 -18 -97t-14 -77 q-8 -47 -9 -98z" />
<glyph unicode="&#xc7;" horiz-adv-x="956" d="M135 352q0 135 66.5 271.5t183.5 240.5q92 86 203.5 134.5t236.5 48.5q33 0 63 -16.5t53.5 -43t37.5 -60.5t14 -69q0 -41 -10 -55q-8 23 -20.5 49.5t-28.5 49t-39 37.5t-51 15q-92 0 -191.5 -44t-185.5 -115q-104 -92 -173 -208t-69 -241q0 -59 21.5 -106t56.5 -84 q86 -90 199 -90q98 0 183 36.5t163 90.5q72 53 133 111t104 110q4 -4 5 -23q0 -16 -3 -18q-37 -59 -93 -117.5t-126 -108.5q-102 -78 -215.5 -126t-199.5 -48q-66 0 -121.5 27t-95.5 74q-100 104 -101 278zM290 -250q10 -2 17.5 -2h13.5q70 0 104.5 34t34.5 126 q0 68 -18 115q37 -20 66.5 -61.5t29.5 -102.5q0 -41 -14 -72t-36.5 -50.5t-49.5 -29.5t-51 -10q-31 0 -61.5 16.5t-35.5 36.5z" />
<glyph unicode="&#xc8;" horiz-adv-x="823" d="M86 156q0 100 40 169.5t103 118.5q70 55 152 88t149 54q-37 14 -76.5 31.5t-72.5 41.5q-45 31 -73.5 69t-28.5 87q0 78 47 124t110 69q57 23 114.5 28.5t92.5 5.5q156 0 226.5 -42t70.5 -97q0 -25 -19.5 -48.5t-76.5 -43.5q8 8 8 14v15q0 33 -16.5 61.5t-44 50 t-61.5 33.5t-71 12t-91 -8t-101 -28q-43 -16 -71.5 -43t-28.5 -64q0 -35 28.5 -67.5t75.5 -61.5q37 -25 82 -45.5t93 -33.5t95 -21.5t84 -8.5q45 0 80 19q-35 -109 -164 -109q-33 0 -80 11.5t-75 23.5q-59 -12 -144.5 -53t-156.5 -100q-45 -39 -75 -83t-30 -94 q0 -39 33 -68.5t82 -49t107.5 -29.5t111.5 -10q141 0 210 41t69 157q0 39 -17 68q43 -18 64.5 -47t21.5 -82q0 -33 -17.5 -73t-60.5 -75.5t-115.5 -59t-185.5 -23.5q-45 0 -112.5 5t-131 23.5t-108.5 53t-45 94.5zM538 1319q70 0 116 -51t85 -150q-59 0 -94 23.5t-54.5 56.5 t-30 67t-22.5 54z" />
<glyph unicode="&#xc9;" horiz-adv-x="823" d="M86 156q0 100 40 169.5t103 118.5q70 55 152 88t149 54q-37 14 -76.5 31.5t-72.5 41.5q-45 31 -73.5 69t-28.5 87q0 78 47 124t110 69q57 23 114.5 28.5t92.5 5.5q156 0 226.5 -42t70.5 -97q0 -25 -19.5 -48.5t-76.5 -43.5q8 8 8 14v15q0 33 -16.5 61.5t-44 50 t-61.5 33.5t-71 12t-91 -8t-101 -28q-43 -16 -71.5 -43t-28.5 -64q0 -35 28.5 -67.5t75.5 -61.5q37 -25 82 -45.5t93 -33.5t95 -21.5t84 -8.5q45 0 80 19q-35 -109 -164 -109q-33 0 -80 11.5t-75 23.5q-59 -12 -144.5 -53t-156.5 -100q-45 -39 -75 -83t-30 -94 q0 -39 33 -68.5t82 -49t107.5 -29.5t111.5 -10q141 0 210 41t69 157q0 39 -17 68q43 -18 64.5 -47t21.5 -82q0 -33 -17.5 -73t-60.5 -75.5t-115.5 -59t-185.5 -23.5q-45 0 -112.5 5t-131 23.5t-108.5 53t-45 94.5zM546 1106q23 8 43.5 27.5t42 44t44 52t49.5 52.5 q25 23 52 39t60 20q-25 -61 -65.5 -113.5t-81.5 -86.5q-33 -23 -60.5 -37.5t-48.5 -14.5q-8 0 -19 3t-16 14z" />
<glyph unicode="&#xca;" horiz-adv-x="823" d="M86 156q0 100 40 169.5t103 118.5q70 55 152 88t149 54q-37 14 -76.5 31.5t-72.5 41.5q-45 31 -73.5 69t-28.5 87q0 78 47 124t110 69q57 23 114.5 28.5t92.5 5.5q156 0 226.5 -42t70.5 -97q0 -25 -19.5 -48.5t-76.5 -43.5q8 8 8 14v15q0 33 -16.5 61.5t-44 50 t-61.5 33.5t-71 12t-91 -8t-101 -28q-43 -16 -71.5 -43t-28.5 -64q0 -35 28.5 -67.5t75.5 -61.5q37 -25 82 -45.5t93 -33.5t95 -21.5t84 -8.5q45 0 80 19q-35 -109 -164 -109q-33 0 -80 11.5t-75 23.5q-59 -12 -144.5 -53t-156.5 -100q-45 -39 -75 -83t-30 -94 q0 -39 33 -68.5t82 -49t107.5 -29.5t111.5 -10q141 0 210 41t69 157q0 39 -17 68q43 -18 64.5 -47t21.5 -82q0 -33 -17.5 -73t-60.5 -75.5t-115.5 -59t-185.5 -23.5q-45 0 -112.5 5t-131 23.5t-108.5 53t-45 94.5zM534 1145q27 4 60 32.5t69 73.5q31 37 59.5 80t55.5 84 l62 -12q0 -45 -1 -76.5t-1 -46.5q0 -29 3 -58.5t14 -55t30.5 -47t50.5 -33.5q-57 2 -91 24.5t-50 59.5q-12 27 -17.5 59.5t-5.5 69.5v18h-2q-10 -18 -27.5 -46t-38.5 -56q-29 -37 -60.5 -66t-61.5 -29q-27 0 -48 25z" />
<glyph unicode="&#xcb;" horiz-adv-x="823" d="M86 156q0 100 40 169.5t103 118.5q70 55 152 88t149 54q-37 14 -76.5 31.5t-72.5 41.5q-45 31 -73.5 69t-28.5 87q0 78 47 124t110 69q57 23 114.5 28.5t92.5 5.5q156 0 226.5 -42t70.5 -97q0 -25 -19.5 -48.5t-76.5 -43.5q8 8 8 14v15q0 33 -16.5 61.5t-44 50 t-61.5 33.5t-71 12t-91 -8t-101 -28q-43 -16 -71.5 -43t-28.5 -64q0 -35 28.5 -67.5t75.5 -61.5q37 -25 82 -45.5t93 -33.5t95 -21.5t84 -8.5q45 0 80 19q-35 -109 -164 -109q-33 0 -80 11.5t-75 23.5q-59 -12 -144.5 -53t-156.5 -100q-45 -39 -75 -83t-30 -94 q0 -39 33 -68.5t82 -49t107.5 -29.5t111.5 -10q141 0 210 41t69 157q0 39 -17 68q43 -18 64.5 -47t21.5 -82q0 -33 -17.5 -73t-60.5 -75.5t-115.5 -59t-185.5 -23.5q-45 0 -112.5 5t-131 23.5t-108.5 53t-45 94.5zM538 1194q0 18 7.5 35.5t16.5 32t17.5 26.5t8.5 20 q41 0 62.5 -15t21.5 -32q0 -16 -11.5 -33.5t-25 -36t-26.5 -36t-17 -33.5q-31 4 -42.5 24.5t-11.5 47.5zM784 1185q0 20 7.5 39t16.5 34t16 27.5t7 20.5q41 0 63.5 -17.5t22.5 -33.5t-10 -32.5t-24.5 -33t-27.5 -33t-20 -34.5q-29 6 -40 22.5t-11 40.5z" />
<glyph unicode="&#xcc;" horiz-adv-x="210" d="M106 121q0 29 3.5 61.5t7.5 71.5q14 90 46 200.5t65.5 215t61 188.5t34.5 121q2 6 2 27q0 45 -19 45q-23 0 -47 -21.5t-31 -32.5q4 18 18.5 45t43.5 29q47 0 68.5 -31.5t21.5 -103.5q0 -90 -21.5 -184.5t-51 -189.5t-57.5 -188t-40 -179q-8 -41 -10 -86.5t-2 -81.5 q0 -33 1 -55.5t5 -32.5q-47 6 -73 48t-26 134zM190 1319q70 0 116 -51t85 -150q-59 0 -94 23.5t-54.5 56.5t-30 67t-22.5 54z" />
<glyph unicode="&#xcd;" horiz-adv-x="210" d="M106 121q0 29 3.5 61.5t7.5 71.5q14 90 46 200.5t65.5 215t61 188.5t34.5 121q2 6 2 27q0 45 -19 45q-23 0 -47 -21.5t-31 -32.5q4 18 18.5 45t43.5 29q47 0 68.5 -31.5t21.5 -103.5q0 -90 -21.5 -184.5t-51 -189.5t-57.5 -188t-40 -179q-8 -41 -10 -86.5t-2 -81.5 q0 -33 1 -55.5t5 -32.5q-47 6 -73 48t-26 134zM161 1096q23 8 43.5 27.5t42 44t44 52t49.5 52.5q25 23 52 39t60 20q-25 -61 -65.5 -113.5t-81.5 -86.5q-33 -23 -60.5 -37.5t-48.5 -14.5q-8 0 -19 3t-16 14z" />
<glyph unicode="&#xce;" horiz-adv-x="210" d="M106 121q0 29 3.5 61.5t7.5 71.5q14 90 46 200.5t65.5 215t61 188.5t34.5 121q2 6 2 27q0 45 -19 45q-23 0 -47 -21.5t-31 -32.5q4 18 18.5 45t43.5 29q47 0 68.5 -31.5t21.5 -103.5q0 -90 -21.5 -184.5t-51 -189.5t-57.5 -188t-40 -179q-8 -41 -10 -86.5t-2 -81.5 q0 -33 1 -55.5t5 -32.5q-47 6 -73 48t-26 134zM129 1133q27 4 60 32.5t69 73.5q31 37 59.5 80t55.5 84l62 -12q0 -45 -1 -76.5t-1 -46.5q0 -29 3 -58.5t14 -55t30.5 -47t50.5 -33.5q-57 2 -91 24.5t-50 59.5q-12 27 -17.5 59.5t-5.5 69.5v18h-2q-10 -18 -27.5 -46t-38.5 -56 q-29 -37 -60.5 -66t-61.5 -29q-27 0 -48 25z" />
<glyph unicode="&#xcf;" horiz-adv-x="210" d="M106 121q0 29 3.5 61.5t7.5 71.5q14 90 46 200.5t65.5 215t61 188.5t34.5 121q2 6 2 27q0 45 -19 45q-23 0 -47 -21.5t-31 -32.5q4 18 18.5 45t43.5 29q47 0 68.5 -31.5t21.5 -103.5q0 -90 -21.5 -184.5t-51 -189.5t-57.5 -188t-40 -179q-8 -41 -10 -86.5t-2 -81.5 q0 -33 1 -55.5t5 -32.5q-47 6 -73 48t-26 134zM168 1201q0 18 7.5 35.5t16.5 32t17.5 26.5t8.5 20q41 0 62.5 -15t21.5 -32q0 -16 -11.5 -33.5t-25 -36t-26.5 -36t-17 -33.5q-31 4 -42.5 24.5t-11.5 47.5zM414 1192q0 20 7.5 39t16.5 34t16 27.5t7 20.5q41 0 63.5 -17.5 t22.5 -33.5t-10 -32.5t-24.5 -33t-27.5 -33t-20 -34.5q-29 6 -40 22.5t-11 40.5z" />
<glyph unicode="&#xd0;" horiz-adv-x="843" d="M8 502q37 0 71 3t64 7q41 123 82 251t76 245q-10 2 -26.5 3t-41.5 1q-37 0 -66.5 -7.5t-64.5 -21.5q27 35 74 47t94 12q135 0 256 -43t209 -112q78 -61 123 -137t45 -156q0 -49 -25.5 -105.5t-69.5 -114t-102.5 -112.5t-121.5 -104q-53 -39 -108.5 -73t-108 -58.5 t-100.5 -38t-87 -13.5q-25 0 -41 5.5t-30 11.5l-3 -21q-4 -25 -14 -52.5t-18 -37.5q-31 20 -42.5 53t-11.5 66q0 8 0.5 16.5t2.5 14.5q0 16 2 22l2 25q12 68 35.5 160t56.5 202q-41 4 -71 16.5t-40 45.5zM123 78q27 6 71 19.5t98 31.5t112.5 43t117.5 55q63 33 121.5 73 t104 86t73 100.5t27.5 119.5q0 66 -39 129.5t-100 116.5q-74 61 -164 101t-170 40q-39 -117 -74 -231.5t-70 -231.5v-6q6 2 33 2h61.5t62.5 -2t52.5 -5t32.5 -9q-63 -29 -127.5 -44t-134.5 -24q-51 -184 -88 -364z" />
<glyph unicode="&#xd1;" horiz-adv-x="591" d="M111 -23q14 147 23 297t32 299q20 129 52 251t69 210q28 17 63 17t51 -19q-45 -117 -63.5 -224.5t-18.5 -217.5q0 -176 41 -352q14 -63 36 -121t69 -99q8 23 15 46.5t12 48.5q12 76 28.5 171t41 195.5t58 198.5t79.5 182t106.5 146.5t138.5 91.5q-84 -111 -141.5 -235 t-98 -253t-67.5 -260t-47 -260q-8 -47 -38 -78.5t-77 -40.5q-88 18 -131 75.5t-62.5 133.5t-25.5 161t-20 159q-8 -86 -15.5 -152.5t-21.5 -144.5q-10 -66 -29.5 -132.5t-58.5 -93.5zM363 1190q31 0 53.5 22.5t46.5 45.5q18 16 40 28.5t52 12.5q55 0 85 -16.5t46.5 -37 t23.5 -37t15 -16.5q16 0 37 10.5t64 61.5q4 -8 6 -23.5t2 -31.5q0 -18 -9.5 -31.5t-20.5 -23t-23.5 -14.5t-18.5 -5q-31 0 -55.5 18.5t-42.5 41t-31.5 41t-19.5 18.5q-20 0 -45 -16.5t-49 -37.5q-27 -20 -51.5 -35.5t-49.5 -15.5q-45 0 -55 41z" />
<glyph unicode="&#xd2;" horiz-adv-x="1110" d="M16 453q0 123 52.5 231.5t135.5 189t188.5 128t209.5 47.5q131 0 246 -22.5t200 -71t134 -123t49 -179.5q0 -143 -59.5 -266t-156.5 -214t-223 -143.5t-257 -52.5q-76 0 -146 34t-123 89.5t-84.5 125t-31.5 143.5q0 109 32.5 203t79.5 168.5t100.5 128t94.5 79.5 q-92 -41 -170 -101.5t-134.5 -134t-88 -156.5t-31.5 -169q0 -14 1 -25.5t3 -21.5q-10 18 -15.5 49t-5.5 64zM236 360q0 -68 18 -128t55 -106t90.5 -72.5t120.5 -26.5q100 0 202.5 42t185.5 116.5t135.5 178t52.5 226.5q0 76 -34 148.5t-95.5 129t-148.5 91t-193 34.5 q-98 0 -171 -70.5t-121 -171t-72.5 -208t-24.5 -183.5zM604 1319q70 0 116 -51t85 -150q-59 0 -94 23.5t-54.5 56.5t-30 67t-22.5 54z" />
<glyph unicode="&#xd3;" horiz-adv-x="1110" d="M16 453q0 123 52.5 231.5t135.5 189t188.5 128t209.5 47.5q131 0 246 -22.5t200 -71t134 -123t49 -179.5q0 -143 -59.5 -266t-156.5 -214t-223 -143.5t-257 -52.5q-76 0 -146 34t-123 89.5t-84.5 125t-31.5 143.5q0 109 32.5 203t79.5 168.5t100.5 128t94.5 79.5 q-92 -41 -170 -101.5t-134.5 -134t-88 -156.5t-31.5 -169q0 -14 1 -25.5t3 -21.5q-10 18 -15.5 49t-5.5 64zM236 360q0 -68 18 -128t55 -106t90.5 -72.5t120.5 -26.5q100 0 202.5 42t185.5 116.5t135.5 178t52.5 226.5q0 76 -34 148.5t-95.5 129t-148.5 91t-193 34.5 q-98 0 -171 -70.5t-121 -171t-72.5 -208t-24.5 -183.5zM557 1096q23 8 43.5 27.5t42 44t44 52t49.5 52.5q25 23 52 39t60 20q-25 -61 -65.5 -113.5t-81.5 -86.5q-33 -23 -60.5 -37.5t-48.5 -14.5q-8 0 -19 3t-16 14z" />
<glyph unicode="&#xd4;" horiz-adv-x="1110" d="M16 453q0 123 52.5 231.5t135.5 189t188.5 128t209.5 47.5q131 0 246 -22.5t200 -71t134 -123t49 -179.5q0 -143 -59.5 -266t-156.5 -214t-223 -143.5t-257 -52.5q-76 0 -146 34t-123 89.5t-84.5 125t-31.5 143.5q0 109 32.5 203t79.5 168.5t100.5 128t94.5 79.5 q-92 -41 -170 -101.5t-134.5 -134t-88 -156.5t-31.5 -169q0 -14 1 -25.5t3 -21.5q-10 18 -15.5 49t-5.5 64zM236 360q0 -68 18 -128t55 -106t90.5 -72.5t120.5 -26.5q100 0 202.5 42t185.5 116.5t135.5 178t52.5 226.5q0 76 -34 148.5t-95.5 129t-148.5 91t-193 34.5 q-98 0 -171 -70.5t-121 -171t-72.5 -208t-24.5 -183.5zM497 1151q27 4 60 32.5t69 73.5q31 37 59.5 80t55.5 84l62 -12q0 -45 -1 -76.5t-1 -46.5q0 -29 3 -58.5t14 -55t30.5 -47t50.5 -33.5q-57 2 -91 24.5t-50 59.5q-12 27 -17.5 59.5t-5.5 69.5v18h-2q-10 -18 -27.5 -46 t-38.5 -56q-29 -37 -60.5 -66t-61.5 -29q-27 0 -48 25z" />
<glyph unicode="&#xd5;" horiz-adv-x="1110" d="M16 453q0 123 52.5 231.5t135.5 189t188.5 128t209.5 47.5q131 0 246 -22.5t200 -71t134 -123t49 -179.5q0 -143 -59.5 -266t-156.5 -214t-223 -143.5t-257 -52.5q-76 0 -146 34t-123 89.5t-84.5 125t-31.5 143.5q0 109 32.5 203t79.5 168.5t100.5 128t94.5 79.5 q-92 -41 -170 -101.5t-134.5 -134t-88 -156.5t-31.5 -169q0 -14 1 -25.5t3 -21.5q-10 18 -15.5 49t-5.5 64zM236 360q0 -68 18 -128t55 -106t90.5 -72.5t120.5 -26.5q100 0 202.5 42t185.5 116.5t135.5 178t52.5 226.5q0 76 -34 148.5t-95.5 129t-148.5 91t-193 34.5 q-98 0 -171 -70.5t-121 -171t-72.5 -208t-24.5 -183.5zM477 1202q31 0 53.5 22.5t46.5 45.5q18 16 40 28.5t52 12.5q55 0 85 -16.5t46.5 -37t23.5 -37t15 -16.5q16 0 37 10.5t64 61.5q4 -8 6 -23.5t2 -31.5q0 -18 -9.5 -31.5t-20.5 -23t-23.5 -14.5t-18.5 -5 q-31 0 -55.5 18.5t-42.5 41t-31.5 41t-19.5 18.5q-20 0 -45 -16.5t-49 -37.5q-27 -20 -51.5 -35.5t-49.5 -15.5q-45 0 -55 41z" />
<glyph unicode="&#xd6;" horiz-adv-x="1110" d="M16 453q0 123 52.5 231.5t135.5 189t188.5 128t209.5 47.5q131 0 246 -22.5t200 -71t134 -123t49 -179.5q0 -143 -59.5 -266t-156.5 -214t-223 -143.5t-257 -52.5q-76 0 -146 34t-123 89.5t-84.5 125t-31.5 143.5q0 109 32.5 203t79.5 168.5t100.5 128t94.5 79.5 q-92 -41 -170 -101.5t-134.5 -134t-88 -156.5t-31.5 -169q0 -14 1 -25.5t3 -21.5q-10 18 -15.5 49t-5.5 64zM236 360q0 -68 18 -128t55 -106t90.5 -72.5t120.5 -26.5q100 0 202.5 42t185.5 116.5t135.5 178t52.5 226.5q0 76 -34 148.5t-95.5 129t-148.5 91t-193 34.5 q-98 0 -171 -70.5t-121 -171t-72.5 -208t-24.5 -183.5zM530 1219q0 18 7.5 35.5t16.5 32t17.5 26.5t8.5 20q41 0 62.5 -15t21.5 -32q0 -16 -11.5 -33.5t-25 -36t-26.5 -36t-17 -33.5q-31 4 -42.5 24.5t-11.5 47.5zM776 1210q0 20 7.5 39t16.5 34t16 27.5t7 20.5 q41 0 63.5 -17.5t22.5 -33.5t-10 -32.5t-24.5 -33t-27.5 -33t-20 -34.5q-29 6 -40 22.5t-11 40.5z" />
<glyph unicode="&#xd8;" horiz-adv-x="1110" d="M-45 453q0 123 52 231.5t135 189t188.5 128t210.5 47.5q76 0 143.5 -7.5t130.5 -21.5q29 53 44.5 91t23.5 77q18 -12 18 -55q0 -51 -27 -129q135 -43 215 -129.5t80 -221.5q0 -143 -59 -266t-156.5 -214t-223.5 -143.5t-257 -52.5q-37 0 -67 9q-10 -27 -18.5 -53.5 t-8.5 -41.5q0 -31 37 -30q-29 -29 -58 -29q-14 0 -31.5 16.5t-17.5 59.5q0 41 25 100q-53 25 -97 63t-78 85t-52.5 101t-18.5 112q0 109 33 203t80 168.5t100 128t94 79.5q-92 -41 -170 -101.5t-134 -134t-88 -156.5t-32 -169q0 -14 1 -25.5t3 -21.5q-10 18 -15 49t-5 64z M174 360q0 -104 44 -189t130 -122q35 84 90.5 201t116.5 241.5t121.5 244.5t105.5 212q-49 20 -103.5 32.5t-115.5 12.5q-98 0 -171 -70.5t-121 -171t-72.5 -208t-24.5 -183.5zM422 29q10 -2 19.5 -2h17.5q100 0 202.5 42t185.5 116.5t135 178t52 226.5q0 94 -49 180 t-141 143q-43 -98 -100.5 -214.5t-116 -234.5t-113.5 -230.5t-92 -204.5z" />
<glyph unicode="&#xd9;" horiz-adv-x="757" d="M129 293q0 51 6 113.5t18.5 127t30 130t39.5 124.5q41 113 99.5 189t123.5 76q20 0 35 -9q-51 -35 -94 -108.5t-78 -171.5q-41 -125 -65.5 -271.5t-24.5 -273.5q0 -63 22.5 -111.5t92.5 -68.5q51 0 111.5 41t112.5 96t86 110.5t34 84.5q16 98 38.5 185t49.5 167 q76 213 170 338q41 -6 74 -35q-29 -41 -70 -130t-82 -200q-23 -59 -42 -119.5t-33.5 -114.5t-22.5 -100.5t-8 -76.5q0 -59 9 -117.5t31.5 -106t62.5 -79t99 -37.5q-37 -10 -49 -11q-31 0 -65.5 13.5t-66.5 46.5t-59.5 85t-43.5 130q-27 -43 -61 -84t-73.5 -73t-86 -52 t-97.5 -20q-111 0 -167 73.5t-56 239.5zM561 1319q70 0 116 -51t85 -150q-59 0 -94 23.5t-54.5 56.5t-30 67t-22.5 54z" />
<glyph unicode="&#xda;" horiz-adv-x="757" d="M129 293q0 51 6 113.5t18.5 127t30 130t39.5 124.5q41 113 99.5 189t123.5 76q20 0 35 -9q-51 -35 -94 -108.5t-78 -171.5q-41 -125 -65.5 -271.5t-24.5 -273.5q0 -63 22.5 -111.5t92.5 -68.5q51 0 111.5 41t112.5 96t86 110.5t34 84.5q16 98 38.5 185t49.5 167 q76 213 170 338q41 -6 74 -35q-29 -41 -70 -130t-82 -200q-23 -59 -42 -119.5t-33.5 -114.5t-22.5 -100.5t-8 -76.5q0 -59 9 -117.5t31.5 -106t62.5 -79t99 -37.5q-37 -10 -49 -11q-31 0 -65.5 13.5t-66.5 46.5t-59.5 85t-43.5 130q-27 -43 -61 -84t-73.5 -73t-86 -52 t-97.5 -20q-111 0 -167 73.5t-56 239.5zM561 1096q23 8 43.5 27.5t42 44t44 52t49.5 52.5q25 23 52 39t60 20q-25 -61 -65.5 -113.5t-81.5 -86.5q-33 -23 -60.5 -37.5t-48.5 -14.5q-8 0 -19 3t-16 14z" />
<glyph unicode="&#xdb;" horiz-adv-x="757" d="M129 293q0 51 6 113.5t18.5 127t30 130t39.5 124.5q41 113 99.5 189t123.5 76q20 0 35 -9q-51 -35 -94 -108.5t-78 -171.5q-41 -125 -65.5 -271.5t-24.5 -273.5q0 -63 22.5 -111.5t92.5 -68.5q51 0 111.5 41t112.5 96t86 110.5t34 84.5q16 98 38.5 185t49.5 167 q76 213 170 338q41 -6 74 -35q-29 -41 -70 -130t-82 -200q-23 -59 -42 -119.5t-33.5 -114.5t-22.5 -100.5t-8 -76.5q0 -59 9 -117.5t31.5 -106t62.5 -79t99 -37.5q-37 -10 -49 -11q-31 0 -65.5 13.5t-66.5 46.5t-59.5 85t-43.5 130q-27 -43 -61 -84t-73.5 -73t-86 -52 t-97.5 -20q-111 0 -167 73.5t-56 239.5zM475 1151q27 4 60 32.5t69 73.5q31 37 59.5 80t55.5 84l62 -12q0 -45 -1 -76.5t-1 -46.5q0 -29 3 -58.5t14 -55t30.5 -47t50.5 -33.5q-57 2 -91 24.5t-50 59.5q-12 27 -17.5 59.5t-5.5 69.5v18h-2q-10 -18 -27.5 -46t-38.5 -56 q-29 -37 -60.5 -66t-61.5 -29q-27 0 -48 25z" />
<glyph unicode="&#xdc;" horiz-adv-x="757" d="M129 293q0 51 6 113.5t18.5 127t30 130t39.5 124.5q41 113 99.5 189t123.5 76q20 0 35 -9q-51 -35 -94 -108.5t-78 -171.5q-41 -125 -65.5 -271.5t-24.5 -273.5q0 -63 22.5 -111.5t92.5 -68.5q51 0 111.5 41t112.5 96t86 110.5t34 84.5q16 98 38.5 185t49.5 167 q76 213 170 338q41 -6 74 -35q-29 -41 -70 -130t-82 -200q-23 -59 -42 -119.5t-33.5 -114.5t-22.5 -100.5t-8 -76.5q0 -59 9 -117.5t31.5 -106t62.5 -79t99 -37.5q-37 -10 -49 -11q-31 0 -65.5 13.5t-66.5 46.5t-59.5 85t-43.5 130q-27 -43 -61 -84t-73.5 -73t-86 -52 t-97.5 -20q-111 0 -167 73.5t-56 239.5zM501 1207q0 18 7.5 35.5t16.5 32t17.5 26.5t8.5 20q41 0 62.5 -15t21.5 -32q0 -16 -11.5 -33.5t-25 -36t-26.5 -36t-17 -33.5q-31 4 -42.5 24.5t-11.5 47.5zM747 1198q0 20 7.5 39t16.5 34t16 27.5t7 20.5q41 0 63.5 -17.5 t22.5 -33.5t-10 -32.5t-24.5 -33t-27.5 -33t-20 -34.5q-29 6 -40 22.5t-11 40.5z" />
<glyph unicode="&#xdd;" horiz-adv-x="552" d="M127 289q0 98 34 205.5t77 218.5q43 106 83.5 207.5t61.5 189.5q8 -37 13 -67.5t5 -61.5q0 -76 -23.5 -149.5t-51.5 -151.5q-37 -94 -71 -193.5t-34 -210.5q0 -10 2 -35.5t8.5 -51t18.5 -46t31 -20.5q18 0 51 37t70.5 93t74.5 123.5t64 127.5q51 123 96 257t82 275 q43 4 61.5 5t36.5 1q-8 -29 -29.5 -95t-51 -158.5t-64.5 -202t-72 -223t-70.5 -223t-61.5 -202t-45 -160t-22 -95.5q-2 -12 -4 -26.5t-2 -29.5q0 -16 3 -28.5t14 -12.5q18 0 31.5 19.5t21.5 42.5q-8 -49 -28.5 -81t-67.5 -32q-37 0 -50.5 29.5t-13.5 73.5q0 31 6 67 q12 57 35 135t49.5 156t53 147.5t47.5 112.5q-23 -29 -45.5 -58.5t-48 -55t-54.5 -46t-61 -28.5q-45 2 -76 21.5t-49.5 49t-26.5 68.5t-8 82zM491 1119q23 8 43.5 27.5t42 44t44 52t49.5 52.5q25 23 52 39t60 20q-25 -61 -65.5 -113.5t-81.5 -86.5q-33 -23 -60.5 -37.5 t-48.5 -14.5q-8 0 -19 3t-16 14z" />
<glyph unicode="&#xde;" horiz-adv-x="741" d="M-272 512q0 72 49 119t125 78q47 18 99 30.5t102.5 20.5t97.5 11t84 3q37 82 68.5 143.5t74.5 108.5q-16 -43 -37.5 -109.5t-46.5 -146.5q84 -6 169 -25.5t152.5 -56.5t110.5 -94t43 -137v-22.5t-2 -22.5q0 -6 -7 -22.5t-28.5 -38t-60.5 -46t-105 -49.5 q-72 -27 -178 -47.5t-262 -32.5q-25 -88 -46 -166t-34 -155q-18 16 -25.5 44.5t-7.5 65.5q0 47 9.5 100.5t23.5 100.5q-41 -6 -73 -6q-72 0 -146 20q25 4 56.5 9.5t63.5 9.5t62.5 8t51.5 8q47 168 82.5 294t72.5 220q-70 0 -163 -14.5t-173 -57.5q-59 -31 -100 -76.5 t-51 -113.5l-4 -14q-47 0 -47 59zM197 233q29 8 71.5 17.5t94 22t106.5 26.5t106 33q82 29 141.5 67.5t59.5 89.5q0 53 -48 94.5t-116.5 70t-145.5 46t-134 25.5q-20 -66 -40 -133.5t-36 -132t-31.5 -123t-27.5 -103.5z" />
<glyph unicode="&#xdf;" horiz-adv-x="614" d="M35 -377q0 98 5 221t14 244t21.5 228.5t24.5 172.5q6 53 20.5 128t36 157t51.5 165t68 153q43 76 99.5 124t126.5 48q78 0 121 -46.5t43 -138.5q0 -78 -25 -145.5t-67 -125.5t-98 -107.5t-122 -88.5q33 -4 77 -20.5t83 -49t65.5 -82.5t26.5 -120q0 -63 -24.5 -114.5 t-62.5 -90.5t-84 -65.5t-92 -44t-85 -25.5t-61 -8q57 31 109 62.5t92 70.5t64.5 86t24.5 106q0 98 -54 171t-134 94q-20 -8 -37.5 -15.5t-38.5 -15.5q-4 -35 -10 -104.5t-14.5 -153.5t-16.5 -176t-16 -173t-14.5 -143.5t-10.5 -87.5q-4 -37 -28.5 -97t-73.5 -120 q-4 27 -4 58.5v68.5zM225 578q74 31 142.5 76.5t122 107t86 139.5t32.5 170q0 49 -17.5 95t-66.5 46q-59 0 -103 -43t-77 -110q-25 -55 -44 -123t-33.5 -134.5t-25 -126t-16.5 -97.5z" />
<glyph unicode="&#xe0;" d="M61 135q0 78 37 156t95 147q63 76 140.5 134.5t153.5 89.5q49 -10 92.5 -37t53.5 -64q-27 -41 -54.5 -98t-54.5 -117q-20 -55 -35.5 -105.5t-15.5 -86.5q0 -61 34 -114.5t101 -53.5q-6 -14 -27.5 -19.5t-33.5 -5.5q-86 0 -119 43t-33 107q0 37 8 69q-4 0 -24.5 -30.5 t-53 -68.5t-74.5 -68.5t-87 -30.5q-27 0 -46.5 14t-31.5 37.5t-18.5 50.5t-6.5 51zM111 55q-1 -20 26 -20q33 0 81 38t95 90t87 109.5t57 94.5q10 23 20 51t19.5 57t15.5 56.5t10 48.5q-59 -29 -126.5 -80t-127.5 -119q-68 -76 -112.5 -160t-44.5 -166zM409 928 q70 0 116 -51t85 -150q-59 0 -94 23.5t-54.5 56.5t-30 67t-22.5 54z" />
<glyph unicode="&#xe1;" d="M61 135q0 78 37 156t95 147q63 76 140.5 134.5t153.5 89.5q49 -10 92.5 -37t53.5 -64q-27 -41 -54.5 -98t-54.5 -117q-20 -55 -35.5 -105.5t-15.5 -86.5q0 -61 34 -114.5t101 -53.5q-6 -14 -27.5 -19.5t-33.5 -5.5q-86 0 -119 43t-33 107q0 37 8 69q-4 0 -24.5 -30.5 t-53 -68.5t-74.5 -68.5t-87 -30.5q-27 0 -46.5 14t-31.5 37.5t-18.5 50.5t-6.5 51zM111 55q-1 -20 26 -20q33 0 81 38t95 90t87 109.5t57 94.5q10 23 20 51t19.5 57t15.5 56.5t10 48.5q-59 -29 -126.5 -80t-127.5 -119q-68 -76 -112.5 -160t-44.5 -166zM417 713 q23 8 43.5 27.5t42 44t44 52t49.5 52.5q25 23 52 39t60 20q-25 -61 -65.5 -113.5t-81.5 -86.5q-33 -23 -60.5 -37.5t-48.5 -14.5q-8 0 -19 3t-16 14z" />
<glyph unicode="&#xe2;" d="M61 135q0 78 37 156t95 147q63 76 140.5 134.5t153.5 89.5q49 -10 92.5 -37t53.5 -64q-27 -41 -54.5 -98t-54.5 -117q-20 -55 -35.5 -105.5t-15.5 -86.5q0 -61 34 -114.5t101 -53.5q-6 -14 -27.5 -19.5t-33.5 -5.5q-86 0 -119 43t-33 107q0 37 8 69q-4 0 -24.5 -30.5 t-53 -68.5t-74.5 -68.5t-87 -30.5q-27 0 -46.5 14t-31.5 37.5t-18.5 50.5t-6.5 51zM111 55q-1 -20 26 -20q33 0 81 38t95 90t87 109.5t57 94.5q10 23 20 51t19.5 57t15.5 56.5t10 48.5q-59 -29 -126.5 -80t-127.5 -119q-68 -76 -112.5 -160t-44.5 -166zM356 756 q27 4 60 32.5t69 73.5q31 37 59.5 80t55.5 84l62 -12q0 -45 -1 -76.5t-1 -46.5q0 -29 3 -58.5t14 -55t30.5 -47t50.5 -33.5q-57 2 -91 24.5t-50 59.5q-12 27 -17.5 59.5t-5.5 69.5v18h-2q-10 -18 -27.5 -46t-38.5 -56q-29 -37 -60.5 -66t-61.5 -29q-27 0 -48 25z" />
<glyph unicode="&#xe3;" d="M61 135q0 78 37 156t95 147q63 76 140.5 134.5t153.5 89.5q49 -10 92.5 -37t53.5 -64q-27 -41 -54.5 -98t-54.5 -117q-20 -55 -35.5 -105.5t-15.5 -86.5q0 -61 34 -114.5t101 -53.5q-6 -14 -27.5 -19.5t-33.5 -5.5q-86 0 -119 43t-33 107q0 37 8 69q-4 0 -24.5 -30.5 t-53 -68.5t-74.5 -68.5t-87 -30.5q-27 0 -46.5 14t-31.5 37.5t-18.5 50.5t-6.5 51zM111 55q-1 -20 26 -20q33 0 81 38t95 90t87 109.5t57 94.5q10 23 20 51t19.5 57t15.5 56.5t10 48.5q-59 -29 -126.5 -80t-127.5 -119q-68 -76 -112.5 -160t-44.5 -166zM350 813 q31 0 53.5 22.5t46.5 45.5q18 16 40 28.5t52 12.5q55 0 85 -16.5t46.5 -37t23.5 -37t15 -16.5q16 0 37 10.5t64 61.5q4 -8 6 -23.5t2 -31.5q0 -18 -9.5 -31.5t-20.5 -23t-23.5 -14.5t-18.5 -5q-31 0 -55.5 18.5t-42.5 41t-31.5 41t-19.5 18.5q-20 0 -45 -16.5t-49 -37.5 q-27 -20 -51.5 -35.5t-49.5 -15.5q-45 0 -55 41z" />
<glyph unicode="&#xe4;" d="M61 135q0 78 37 156t95 147q63 76 140.5 134.5t153.5 89.5q49 -10 92.5 -37t53.5 -64q-27 -41 -54.5 -98t-54.5 -117q-20 -55 -35.5 -105.5t-15.5 -86.5q0 -61 34 -114.5t101 -53.5q-6 -14 -27.5 -19.5t-33.5 -5.5q-86 0 -119 43t-33 107q0 37 8 69q-4 0 -24.5 -30.5 t-53 -68.5t-74.5 -68.5t-87 -30.5q-27 0 -46.5 14t-31.5 37.5t-18.5 50.5t-6.5 51zM111 55q-1 -20 26 -20q33 0 81 38t95 90t87 109.5t57 94.5q10 23 20 51t19.5 57t15.5 56.5t10 48.5q-59 -29 -126.5 -80t-127.5 -119q-68 -76 -112.5 -160t-44.5 -166zM393 830 q0 18 7.5 35.5t16.5 32t17.5 26.5t8.5 20q41 0 62.5 -15t21.5 -32q0 -16 -11.5 -33.5t-25 -36t-26.5 -36t-17 -33.5q-31 4 -42.5 24.5t-11.5 47.5zM639 821q0 20 7.5 39t16.5 34t16 27.5t7 20.5q41 0 63.5 -17.5t22.5 -33.5t-10 -32.5t-24.5 -33t-27.5 -33t-20 -34.5 q-29 6 -40 22.5t-11 40.5z" />
<glyph unicode="&#xe5;" d="M61 135q0 78 37 156t95 147q63 76 140.5 134.5t153.5 89.5q49 -10 92.5 -37t53.5 -64q-27 -41 -54.5 -98t-54.5 -117q-20 -55 -35.5 -105.5t-15.5 -86.5q0 -61 34 -114.5t101 -53.5q-6 -14 -27.5 -19.5t-33.5 -5.5q-86 0 -119 43t-33 107q0 37 8 69q-4 0 -24.5 -30.5 t-53 -68.5t-74.5 -68.5t-87 -30.5q-27 0 -46.5 14t-31.5 37.5t-18.5 50.5t-6.5 51zM111 55q-1 -20 26 -20q33 0 81 38t95 90t87 109.5t57 94.5q10 23 20 51t19.5 57t15.5 56.5t10 48.5q-59 -29 -126.5 -80t-127.5 -119q-68 -76 -112.5 -160t-44.5 -166zM449 789 q0 33 14.5 70.5t41 70.5t66.5 55.5t91 22.5q2 -8 18.5 -16.5t35 -22.5t33.5 -38t15 -62q0 -31 -11 -65t-33.5 -63.5t-55.5 -48t-74 -18.5q-141 10 -141 115zM525 768q0 -27 16 -37q33 0 61.5 16.5t49 40t32 50t11.5 49.5q0 31 -13.5 42t-21.5 11q-20 0 -44 -12t-44.5 -34.5 t-33.5 -54.5t-13 -71z" />
<glyph unicode="&#xe6;" horiz-adv-x="989" d="M59 135q0 80 39 161t101.5 151.5t138.5 127t149 87.5q37 -8 75 -29t56 -51q61 57 127 80q35 0 70 -7.5t64.5 -24t51 -41t30.5 -61.5q-12 -43 -46 -92t-80.5 -91t-99.5 -68.5t-106 -26.5q-31 0 -56.5 11t-35.5 24q-8 -8 -24.5 -53.5t-16.5 -92.5q0 -55 36.5 -78.5 t83.5 -23.5q41 0 102.5 24.5t124 67.5t118 101.5t86.5 125.5q-16 -90 -62.5 -159.5t-106 -116.5t-123 -72.5t-114.5 -25.5q-88 0 -134 27.5t-71 72.5q-25 -23 -56.5 -55.5t-64.5 -81.5q20 70 41 121t58 110q-16 -20 -44 -53t-63 -64.5t-72.5 -54t-72.5 -22.5q-27 0 -46.5 14 t-31.5 37.5t-18.5 50.5t-6.5 51zM109 55q0 -20 28 -20q33 0 80 38t94 90t87 109.5t57 94.5q18 47 36.5 108.5t28.5 104.5q-70 -29 -138.5 -85.5t-125.5 -128t-96 -150.5t-49 -153q0 -2 -1 -3t-1 -5zM553 326q4 -8 22.5 -13.5t26.5 -5.5q18 0 62.5 16.5t91.5 45t82.5 69.5 t35.5 90q0 23 -20 46.5t-41 25.5q-35 -4 -76 -39t-78.5 -79t-66.5 -87.5t-39 -68.5z" />
<glyph unicode="&#xe7;" horiz-adv-x="565" d="M53 225q0 70 26.5 142.5t74.5 136.5q49 68 116.5 111.5t143.5 43.5q88 0 131 -35.5t43 -74.5q0 -25 -13.5 -43.5t-37.5 -22.5q0 45 -36 77t-69 32q-53 0 -101 -41t-85 -102q-41 -68 -65.5 -148t-24.5 -149q0 -49 14 -87t57 -38q47 0 96.5 18t92.5 49q41 29 75.5 64 t59.5 67q-8 -33 -40 -76t-77 -77q-49 -39 -107.5 -62.5t-105.5 -23.5q-45 0 -76.5 21.5t-52 55t-30 76.5t-9.5 86zM96 -250q10 -2 17.5 -2h13.5q70 0 104.5 34t34.5 126q0 68 -18 115q37 -20 66.5 -61.5t29.5 -102.5q0 -41 -14 -72t-36.5 -50.5t-49.5 -29.5t-51 -10 q-31 0 -61.5 16.5t-35.5 36.5z" />
<glyph unicode="&#xe8;" horiz-adv-x="622" d="M57 190q0 82 43 173.5t123 179.5q39 43 80 76t84 43q35 0 71 -7.5t65.5 -24t51 -41t27.5 -61.5q-10 -43 -44 -92t-80 -91t-101 -68.5t-107 -26.5q-31 0 -55.5 11t-36.5 24q-8 -8 -24.5 -53.5t-16.5 -92.5q0 -55 37 -78.5t84 -23.5t116.5 30.5t139.5 84.5q53 41 101.5 93 t74.5 111q-16 -82 -54 -144t-93 -110q-70 -59 -145.5 -90.5t-133.5 -31.5q-59 0 -98 17t-63.5 47t-35 68t-10.5 78zM195 326q4 -8 22.5 -13.5t28.5 -5.5q18 0 62 16.5t91 45t83 69.5t36 90q0 23 -21.5 46.5t-41.5 25.5q-37 -4 -77 -39t-77 -78q-37 -45 -65.5 -87.5 t-40.5 -69.5zM301 936q70 0 116 -51t85 -150q-59 0 -94 23.5t-54.5 56.5t-30 67t-22.5 54z" />
<glyph unicode="&#xe9;" horiz-adv-x="622" d="M57 190q0 82 43 173.5t123 179.5q39 43 80 76t84 43q35 0 71 -7.5t65.5 -24t51 -41t27.5 -61.5q-10 -43 -44 -92t-80 -91t-101 -68.5t-107 -26.5q-31 0 -55.5 11t-36.5 24q-8 -8 -24.5 -53.5t-16.5 -92.5q0 -55 37 -78.5t84 -23.5t116.5 30.5t139.5 84.5q53 41 101.5 93 t74.5 111q-16 -82 -54 -144t-93 -110q-70 -59 -145.5 -90.5t-133.5 -31.5q-59 0 -98 17t-63.5 47t-35 68t-10.5 78zM195 326q4 -8 22.5 -13.5t28.5 -5.5q18 0 62 16.5t91 45t83 69.5t36 90q0 23 -21.5 46.5t-41.5 25.5q-37 -4 -77 -39t-77 -78q-37 -45 -65.5 -87.5 t-40.5 -69.5zM280 717q23 8 43.5 27.5t42 44t44 52t49.5 52.5q25 23 52 39t60 20q-25 -61 -65.5 -113.5t-81.5 -86.5q-33 -23 -60.5 -37.5t-48.5 -14.5q-8 0 -19 3t-16 14z" />
<glyph unicode="&#xea;" horiz-adv-x="622" d="M57 190q0 82 43 173.5t123 179.5q39 43 80 76t84 43q35 0 71 -7.5t65.5 -24t51 -41t27.5 -61.5q-10 -43 -44 -92t-80 -91t-101 -68.5t-107 -26.5q-31 0 -55.5 11t-36.5 24q-8 -8 -24.5 -53.5t-16.5 -92.5q0 -55 37 -78.5t84 -23.5t116.5 30.5t139.5 84.5q53 41 101.5 93 t74.5 111q-16 -82 -54 -144t-93 -110q-70 -59 -145.5 -90.5t-133.5 -31.5q-59 0 -98 17t-63.5 47t-35 68t-10.5 78zM195 326q4 -8 22.5 -13.5t28.5 -5.5q18 0 62 16.5t91 45t83 69.5t36 90q0 23 -21.5 46.5t-41.5 25.5q-37 -4 -77 -39t-77 -78q-37 -45 -65.5 -87.5 t-40.5 -69.5zM251 754q27 4 60 32.5t69 73.5q31 37 59.5 80t55.5 84l62 -12q0 -45 -1 -76.5t-1 -46.5q0 -29 3 -58.5t14 -55t30.5 -47t50.5 -33.5q-57 2 -91 24.5t-50 59.5q-12 27 -17.5 59.5t-5.5 69.5v18h-2q-10 -18 -27.5 -46t-38.5 -56q-29 -37 -60.5 -66t-61.5 -29 q-27 0 -48 25z" />
<glyph unicode="&#xeb;" horiz-adv-x="622" d="M57 190q0 82 43 173.5t123 179.5q39 43 80 76t84 43q35 0 71 -7.5t65.5 -24t51 -41t27.5 -61.5q-10 -43 -44 -92t-80 -91t-101 -68.5t-107 -26.5q-31 0 -55.5 11t-36.5 24q-8 -8 -24.5 -53.5t-16.5 -92.5q0 -55 37 -78.5t84 -23.5t116.5 30.5t139.5 84.5q53 41 101.5 93 t74.5 111q-16 -82 -54 -144t-93 -110q-70 -59 -145.5 -90.5t-133.5 -31.5q-59 0 -98 17t-63.5 47t-35 68t-10.5 78zM195 326q4 -8 22.5 -13.5t28.5 -5.5q18 0 62 16.5t91 45t83 69.5t36 90q0 23 -21.5 46.5t-41.5 25.5q-37 -4 -77 -39t-77 -78q-37 -45 -65.5 -87.5 t-40.5 -69.5zM280 822q0 18 7.5 35.5t16.5 32t17.5 26.5t8.5 20q41 0 62.5 -15t21.5 -32q0 -16 -11.5 -33.5t-25 -36t-26.5 -36t-17 -33.5q-31 4 -42.5 24.5t-11.5 47.5zM526 813q0 20 7.5 39t16.5 34t16 27.5t7 20.5q41 0 63.5 -17.5t22.5 -33.5t-10 -32.5t-24.5 -33 t-27.5 -33t-20 -34.5q-29 6 -40 22.5t-11 40.5z" />
<glyph unicode="&#xec;" horiz-adv-x="309" d="M53 164q0 61 17.5 127.5t44 133.5t60.5 127.5t65 109.5q55 -10 77 -41q-43 -82 -72.5 -159t-47 -144.5t-25.5 -122t-8 -91.5q0 -31 5 -50t17 -19q23 0 45.5 19.5t44 47t38 60.5t26.5 57q2 -6 2 -26q0 -29 -12.5 -62t-35 -63.5t-53 -56t-67.5 -38.5q-59 0 -90 58.5 t-31 132.5zM145 936q70 0 116 -51t85 -150q-59 0 -94 23.5t-54.5 56.5t-30 67t-22.5 54z" />
<glyph unicode="&#xed;" horiz-adv-x="309" d="M53 164q0 61 17.5 127.5t44 133.5t60.5 127.5t65 109.5q55 -10 77 -41q-43 -82 -72.5 -159t-47 -144.5t-25.5 -122t-8 -91.5q0 -31 5 -50t17 -19q23 0 45.5 19.5t44 47t38 60.5t26.5 57q2 -6 2 -26q0 -29 -12.5 -62t-35 -63.5t-53 -56t-67.5 -38.5q-59 0 -90 58.5 t-31 132.5zM172 725q23 8 43.5 27.5t42 44t44 52t49.5 52.5q25 23 52 39t60 20q-25 -61 -65.5 -113.5t-81.5 -86.5q-33 -23 -60.5 -37.5t-48.5 -14.5q-8 0 -19 3t-16 14z" />
<glyph unicode="&#xee;" horiz-adv-x="309" d="M53 164q0 61 17.5 127.5t44 133.5t60.5 127.5t65 109.5q55 -10 77 -41q-43 -82 -72.5 -159t-47 -144.5t-25.5 -122t-8 -91.5q0 -31 5 -50t17 -19q23 0 45.5 19.5t44 47t38 60.5t26.5 57q2 -6 2 -26q0 -29 -12.5 -62t-35 -63.5t-53 -56t-67.5 -38.5q-59 0 -90 58.5 t-31 132.5zM133 760q27 4 60 32.5t69 73.5q31 37 59.5 80t55.5 84l62 -12q0 -45 -1 -76.5t-1 -46.5q0 -29 3 -58.5t14 -55t30.5 -47t50.5 -33.5q-57 2 -91 24.5t-50 59.5q-12 27 -17.5 59.5t-5.5 69.5v18h-2q-10 -18 -27.5 -46t-38.5 -56q-29 -37 -60.5 -66t-61.5 -29 q-27 0 -48 25z" />
<glyph unicode="&#xef;" horiz-adv-x="309" d="M53 164q0 61 17.5 127.5t44 133.5t60.5 127.5t65 109.5q55 -10 77 -41q-43 -82 -72.5 -159t-47 -144.5t-25.5 -122t-8 -91.5q0 -31 5 -50t17 -19q23 0 45.5 19.5t44 47t38 60.5t26.5 57q2 -6 2 -26q0 -29 -12.5 -62t-35 -63.5t-53 -56t-67.5 -38.5q-59 0 -90 58.5 t-31 132.5zM155 836q0 18 7.5 35.5t16.5 32t17.5 26.5t8.5 20q41 0 62.5 -15t21.5 -32q0 -16 -11.5 -33.5t-25 -36t-26.5 -36t-17 -33.5q-31 4 -42.5 24.5t-11.5 47.5zM401 827q0 20 7.5 39t16.5 34t16 27.5t7 20.5q41 0 63.5 -17.5t22.5 -33.5t-10 -32.5t-24.5 -33 t-27.5 -33t-20 -34.5q-29 6 -40 22.5t-11 40.5z" />
<glyph unicode="&#xf0;" horiz-adv-x="626" d="M63 262q0 76 27 141.5t70 113.5t99.5 74.5t115.5 26.5q57 0 94 -31.5t51 -80.5q-6 74 -25.5 145.5t-48 139t-63.5 128t-70 107.5q59 -18 114.5 -74.5t97.5 -140.5t66.5 -187.5t24.5 -213.5q0 -82 -18 -161t-55 -140.5t-94.5 -99.5t-133.5 -38q-49 0 -94 22.5t-80 62.5 t-56.5 93.5t-21.5 112.5zM152 317q0 -47 15 -99t43 -97t63.5 -75t76.5 -30q37 0 68 29t53.5 72t34.5 93t12 93q0 18 -6 41q-29 -55 -66 -55q-18 0 -32 20q27 0 44 23.5t17 60.5q0 27 -13 58.5t-34.5 58.5t-50.5 45t-60 18q-37 0 -67.5 -24.5t-52 -62t-33.5 -83t-12 -86.5z " />
<glyph unicode="&#xf1;" horiz-adv-x="542" d="M35 -12q10 47 26.5 114.5t30.5 141.5q16 86 28.5 169t12.5 148q0 53 -14.5 95t-48.5 71q80 -10 108.5 -56t28.5 -108q0 -25 -4 -51.5t-10 -52.5q18 41 38.5 76.5t46 61.5t60.5 41t84 15q66 0 88 -56t22 -138q0 -41 -3 -81t-7 -81q-12 -86 -34.5 -168t-63.5 -147 q-23 8 -46.5 26.5t-31.5 36.5q20 66 37.5 134.5t30.5 137.5q0 8 2 33t5 55.5t6 66.5t3 67q0 33 -4 55t-12 22q-29 0 -56.5 -24.5t-50 -57t-38 -67.5t-21.5 -53q-20 -47 -36.5 -96.5t-27.5 -100.5q-16 -70 -28.5 -138t-24.5 -134q-25 4 -52.5 15t-43.5 28zM139 819 q31 0 53.5 22.5t46.5 45.5q18 16 40 28.5t52 12.5q55 0 85 -16.5t46.5 -37t23.5 -37t15 -16.5q16 0 37 10.5t64 61.5q4 -8 6 -23.5t2 -31.5q0 -18 -9.5 -31.5t-20.5 -23t-23.5 -14.5t-18.5 -5q-31 0 -55.5 18.5t-42.5 41t-31.5 41t-19.5 18.5q-20 0 -45 -16.5t-49 -37.5 q-27 -20 -51.5 -35.5t-49.5 -15.5q-45 0 -55 41z" />
<glyph unicode="&#xf2;" horiz-adv-x="669" d="M45 197q0 78 44 179t122 187q39 47 85 76t97 29q59 0 108.5 -21.5t85.5 -58.5t55.5 -86t19.5 -105q0 -74 -32 -145.5t-85 -130.5q-57 -63 -131 -103.5t-150 -40.5q-106 0 -162.5 60.5t-56.5 159.5zM115 160q0 -45 22.5 -77t81.5 -32q78 0 145.5 39t116.5 98 q43 53 68.5 115t25.5 121q0 66 -29.5 116t-103.5 50q-39 0 -79.5 -26.5t-81.5 -69.5q-35 -37 -65 -81t-52.5 -89t-35.5 -87t-13 -77zM325 936q70 0 116 -51t85 -150q-59 0 -94 23.5t-54.5 56.5t-30 67t-22.5 54z" />
<glyph unicode="&#xf3;" horiz-adv-x="669" d="M45 197q0 78 44 179t122 187q39 47 85 76t97 29q59 0 108.5 -21.5t85.5 -58.5t55.5 -86t19.5 -105q0 -74 -32 -145.5t-85 -130.5q-57 -63 -131 -103.5t-150 -40.5q-106 0 -162.5 60.5t-56.5 159.5zM115 160q0 -45 22.5 -77t81.5 -32q78 0 145.5 39t116.5 98 q43 53 68.5 115t25.5 121q0 66 -29.5 116t-103.5 50q-39 0 -79.5 -26.5t-81.5 -69.5q-35 -37 -65 -81t-52.5 -89t-35.5 -87t-13 -77zM278 713q23 8 43.5 27.5t42 44t44 52t49.5 52.5q25 23 52 39t60 20q-25 -61 -65.5 -113.5t-81.5 -86.5q-33 -23 -60.5 -37.5t-48.5 -14.5 q-8 0 -19 3t-16 14z" />
<glyph unicode="&#xf4;" horiz-adv-x="669" d="M45 197q0 78 44 179t122 187q39 47 85 76t97 29q59 0 108.5 -21.5t85.5 -58.5t55.5 -86t19.5 -105q0 -74 -32 -145.5t-85 -130.5q-57 -63 -131 -103.5t-150 -40.5q-106 0 -162.5 60.5t-56.5 159.5zM115 160q0 -45 22.5 -77t81.5 -32q78 0 145.5 39t116.5 98 q43 53 68.5 115t25.5 121q0 66 -29.5 116t-103.5 50q-39 0 -79.5 -26.5t-81.5 -69.5q-35 -37 -65 -81t-52.5 -89t-35.5 -87t-13 -77zM249 762q27 4 60 32.5t69 73.5q31 37 59.5 80t55.5 84l62 -12q0 -45 -1 -76.5t-1 -46.5q0 -29 3 -58.5t14 -55t30.5 -47t50.5 -33.5 q-57 2 -91 24.5t-50 59.5q-12 27 -17.5 59.5t-5.5 69.5v18h-2q-10 -18 -27.5 -46t-38.5 -56q-29 -37 -60.5 -66t-61.5 -29q-27 0 -48 25z" />
<glyph unicode="&#xf5;" horiz-adv-x="669" d="M45 197q0 78 44 179t122 187q39 47 85 76t97 29q59 0 108.5 -21.5t85.5 -58.5t55.5 -86t19.5 -105q0 -74 -32 -145.5t-85 -130.5q-57 -63 -131 -103.5t-150 -40.5q-106 0 -162.5 60.5t-56.5 159.5zM115 160q0 -45 22.5 -77t81.5 -32q78 0 145.5 39t116.5 98 q43 53 68.5 115t25.5 121q0 66 -29.5 116t-103.5 50q-39 0 -79.5 -26.5t-81.5 -69.5q-35 -37 -65 -81t-52.5 -89t-35.5 -87t-13 -77zM225 819q31 0 53.5 22.5t46.5 45.5q18 16 40 28.5t52 12.5q55 0 85 -16.5t46.5 -37t23.5 -37t15 -16.5q16 0 37 10.5t64 61.5q4 -8 6 -23.5 t2 -31.5q0 -18 -9.5 -31.5t-20.5 -23t-23.5 -14.5t-18.5 -5q-31 0 -55.5 18.5t-42.5 41t-31.5 41t-19.5 18.5q-20 0 -45 -16.5t-49 -37.5q-27 -20 -51.5 -35.5t-49.5 -15.5q-45 0 -55 41z" />
<glyph unicode="&#xf6;" horiz-adv-x="669" d="M45 197q0 78 44 179t122 187q39 47 85 76t97 29q59 0 108.5 -21.5t85.5 -58.5t55.5 -86t19.5 -105q0 -74 -32 -145.5t-85 -130.5q-57 -63 -131 -103.5t-150 -40.5q-106 0 -162.5 60.5t-56.5 159.5zM115 160q0 -45 22.5 -77t81.5 -32q78 0 145.5 39t116.5 98 q43 53 68.5 115t25.5 121q0 66 -29.5 116t-103.5 50q-39 0 -79.5 -26.5t-81.5 -69.5q-35 -37 -65 -81t-52.5 -89t-35.5 -87t-13 -77zM284 834q0 18 7.5 35.5t16.5 32t17.5 26.5t8.5 20q41 0 62.5 -15t21.5 -32q0 -16 -11.5 -33.5t-25 -36t-26.5 -36t-17 -33.5 q-31 4 -42.5 24.5t-11.5 47.5zM530 825q0 20 7.5 39t16.5 34t16 27.5t7 20.5q41 0 63.5 -17.5t22.5 -33.5t-10 -32.5t-24.5 -33t-27.5 -33t-20 -34.5q-29 6 -40 22.5t-11 40.5z" />
<glyph unicode="&#xf8;" horiz-adv-x="669" d="M45 197q0 51 27.5 132t75 155.5t111 129t134.5 54.5q37 0 70 -9.5t61 -23.5q35 53 51.5 81.5t24.5 61.5q16 -12 16 -39t-11 -61.5t-32 -77.5q88 -76 89 -203q0 -76 -34 -150.5t-90.5 -135t-128 -97.5t-145.5 -37q-31 0 -67 11q-14 -33 -29.5 -63.5t-15.5 -51.5 q0 -12 6 -16t26 -7q-25 -18 -51 -18q-14 0 -29.5 11.5t-15.5 39.5q0 20 13.5 52t35.5 75q-92 57 -92 187zM115 160q0 -33 11 -59.5t40 -39.5q29 53 66.5 116t78.5 126.5t82 126t76 115.5q6 10 12 18t11 17q-25 10 -50 10q-53 0 -110.5 -48t-105.5 -116t-79.5 -141.5 t-31.5 -124.5zM236 51q70 4 133 42t112 95q43 53 68.5 115t25.5 121q0 33 -7 64.5t-25 54.5l-2 -4q-33 -55 -72 -118t-80 -126.5t-81 -126t-72 -117.5z" />
<glyph unicode="&#xf9;" horiz-adv-x="485" d="M41 158q0 27 11 92t38 145q25 74 57.5 147.5t79.5 129.5q25 -25 27 -62q-20 -57 -40.5 -120.5t-39.5 -131.5q-18 -57 -27.5 -117.5t-9.5 -115.5q0 -37 12.5 -69.5t49.5 -43.5q47 41 78.5 94.5t54.5 114.5q20 51 33.5 106.5t22.5 107.5t15.5 98.5t10.5 82.5q24 9 61 9 q16 0 37 -4q-10 -55 -21.5 -119t-20.5 -130.5t-15 -132t-6 -120.5q0 -57 13 -106.5t60 -75.5q-29 -12 -47 -13q-29 0 -48 18.5t-33.5 46t-23 58.5t-12.5 55q-10 -20 -30.5 -41.5t-46 -40t-54 -29.5t-53.5 -11q-39 0 -64.5 15t-41 39.5t-21.5 56.5t-6 67zM233 936 q70 0 116 -51t85 -150q-59 0 -94 23.5t-54.5 56.5t-30 67t-22.5 54z" />
<glyph unicode="&#xfa;" horiz-adv-x="485" d="M41 158q0 27 11 92t38 145q25 74 57.5 147.5t79.5 129.5q25 -25 27 -62q-20 -57 -40.5 -120.5t-39.5 -131.5q-18 -57 -27.5 -117.5t-9.5 -115.5q0 -37 12.5 -69.5t49.5 -43.5q47 41 78.5 94.5t54.5 114.5q20 51 33.5 106.5t22.5 107.5t15.5 98.5t10.5 82.5q24 9 61 9 q16 0 37 -4q-10 -55 -21.5 -119t-20.5 -130.5t-15 -132t-6 -120.5q0 -57 13 -106.5t60 -75.5q-29 -12 -47 -13q-29 0 -48 18.5t-33.5 46t-23 58.5t-12.5 55q-10 -20 -30.5 -41.5t-46 -40t-54 -29.5t-53.5 -11q-39 0 -64.5 15t-41 39.5t-21.5 56.5t-6 67zM243 715 q23 8 43.5 27.5t42 44t44 52t49.5 52.5q25 23 52 39t60 20q-25 -61 -65.5 -113.5t-81.5 -86.5q-33 -23 -60.5 -37.5t-48.5 -14.5q-8 0 -19 3t-16 14z" />
<glyph unicode="&#xfb;" horiz-adv-x="485" d="M41 158q0 27 11 92t38 145q25 74 57.5 147.5t79.5 129.5q25 -25 27 -62q-20 -57 -40.5 -120.5t-39.5 -131.5q-18 -57 -27.5 -117.5t-9.5 -115.5q0 -37 12.5 -69.5t49.5 -43.5q47 41 78.5 94.5t54.5 114.5q20 51 33.5 106.5t22.5 107.5t15.5 98.5t10.5 82.5q24 9 61 9 q16 0 37 -4q-10 -55 -21.5 -119t-20.5 -130.5t-15 -132t-6 -120.5q0 -57 13 -106.5t60 -75.5q-29 -12 -47 -13q-29 0 -48 18.5t-33.5 46t-23 58.5t-12.5 55q-10 -20 -30.5 -41.5t-46 -40t-54 -29.5t-53.5 -11q-39 0 -64.5 15t-41 39.5t-21.5 56.5t-6 67zM182 741 q27 4 60 32.5t69 73.5q31 37 59.5 80t55.5 84l62 -12q0 -45 -1 -76.5t-1 -46.5q0 -29 3 -58.5t14 -55t30.5 -47t50.5 -33.5q-57 2 -91 24.5t-50 59.5q-12 27 -17.5 59.5t-5.5 69.5v18h-2q-10 -18 -27.5 -46t-38.5 -56q-29 -37 -60.5 -66t-61.5 -29q-27 0 -48 25z" />
<glyph unicode="&#xfc;" horiz-adv-x="485" d="M41 158q0 27 11 92t38 145q25 74 57.5 147.5t79.5 129.5q25 -25 27 -62q-20 -57 -40.5 -120.5t-39.5 -131.5q-18 -57 -27.5 -117.5t-9.5 -115.5q0 -37 12.5 -69.5t49.5 -43.5q47 41 78.5 94.5t54.5 114.5q20 51 33.5 106.5t22.5 107.5t15.5 98.5t10.5 82.5q24 9 61 9 q16 0 37 -4q-10 -55 -21.5 -119t-20.5 -130.5t-15 -132t-6 -120.5q0 -57 13 -106.5t60 -75.5q-29 -12 -47 -13q-29 0 -48 18.5t-33.5 46t-23 58.5t-12.5 55q-10 -20 -30.5 -41.5t-46 -40t-54 -29.5t-53.5 -11q-39 0 -64.5 15t-41 39.5t-21.5 56.5t-6 67zM219 807 q0 18 7.5 35.5t16.5 32t17.5 26.5t8.5 20q41 0 62.5 -15t21.5 -32q0 -16 -11.5 -33.5t-25 -36t-26.5 -36t-17 -33.5q-31 4 -42.5 24.5t-11.5 47.5zM465 798q0 20 7.5 39t16.5 34t16 27.5t7 20.5q41 0 63.5 -17.5t22.5 -33.5t-10 -32.5t-24.5 -33t-27.5 -33t-20 -34.5 q-29 6 -40 22.5t-11 40.5z" />
<glyph unicode="&#xfd;" horiz-adv-x="475" d="M2 76q0 55 21.5 115.5t54.5 122t68.5 122t64.5 117.5q31 66 43 115q20 -55 20 -115q0 -35 -7 -65.5t-19 -59.5q-20 -49 -49 -93t-55.5 -88t-45 -89t-18.5 -97q0 -14 7 -24t13 -10q10 0 37 22.5t56.5 53t56 60.5t37.5 46q20 57 47.5 128t55.5 140.5t53.5 131t43.5 100.5 h37q16 0 29.5 -1t24.5 -3q-61 -154 -118 -305.5t-110 -311.5q-23 -66 -39 -124t-28 -114q-12 -55 -19.5 -109t-11.5 -112q0 -16 8 -16t22.5 17.5t30 43t30.5 54t26 51.5q-4 -29 -16.5 -68t-30 -73.5t-37 -58t-37.5 -23.5q-41 0 -57.5 28.5t-16.5 71.5q0 86 25 207 q14 63 32.5 126.5t42.5 119.5q-14 -20 -34.5 -46t-45 -48.5t-49 -38t-49.5 -15.5q-51 0 -72.5 33t-21.5 82zM313 719q23 8 43.5 27.5t42 44t44 52t49.5 52.5q25 23 52 39t60 20q-25 -61 -65.5 -113.5t-81.5 -86.5q-33 -23 -60.5 -37.5t-48.5 -14.5q-8 0 -19 3t-16 14z" />
<glyph unicode="&#xfe;" horiz-adv-x="616" d="M-18 -524q12 33 28.5 117.5t40.5 240.5l58 361q14 92 28.5 178t22.5 153q-12 -2 -22.5 -3t-18.5 -1q-39 0 -60 31q41 14 69 30.5t50 37.5q10 37 21.5 96t21.5 125q29 184 45.5 292.5t16.5 159.5q0 37 -11 41q14 21 41 21q25 0 35 -29t10 -78q0 -43 -6 -93t-14 -105 q-12 -63 -20.5 -108.5t-15.5 -88.5t-15 -92t-21 -119q147 -4 234.5 -60.5t87.5 -193.5q0 -94 -41 -170t-104.5 -129t-137.5 -81.5t-137 -28.5q-12 -68 -23.5 -148t-30 -152.5t-49 -129t-83.5 -74.5zM174 63q55 8 110.5 30t101.5 62t74.5 103.5t28.5 155.5t-47 132t-145 40 h-20.5t-20.5 -2q-2 -23 -7 -52.5t-11 -66.5l-45 -299q-10 -31 -14.5 -58.5t-4.5 -44.5z" />
<glyph unicode="&#xff;" horiz-adv-x="475" d="M2 76q0 55 21.5 115.5t54.5 122t68.5 122t64.5 117.5q31 66 43 115q20 -55 20 -115q0 -35 -7 -65.5t-19 -59.5q-20 -49 -49 -93t-55.5 -88t-45 -89t-18.5 -97q0 -14 7 -24t13 -10q10 0 37 22.5t56.5 53t56 60.5t37.5 46q20 57 47.5 128t55.5 140.5t53.5 131t43.5 100.5 h37q16 0 29.5 -1t24.5 -3q-61 -154 -118 -305.5t-110 -311.5q-23 -66 -39 -124t-28 -114q-12 -55 -19.5 -109t-11.5 -112q0 -16 8 -16t22.5 17.5t30 43t30.5 54t26 51.5q-4 -29 -16.5 -68t-30 -73.5t-37 -58t-37.5 -23.5q-41 0 -57.5 28.5t-16.5 71.5q0 86 25 207 q14 63 32.5 126.5t42.5 119.5q-14 -20 -34.5 -46t-45 -48.5t-49 -38t-49.5 -15.5q-51 0 -72.5 33t-21.5 82zM256 832q0 18 7.5 35.5t16.5 32t17.5 26.5t8.5 20q41 0 62.5 -15t21.5 -32q0 -16 -11.5 -33.5t-25 -36t-26.5 -36t-17 -33.5q-31 4 -42.5 24.5t-11.5 47.5zM502 823 q0 20 7.5 39t16.5 34t16 27.5t7 20.5q41 0 63.5 -17.5t22.5 -33.5t-10 -32.5t-24.5 -33t-27.5 -33t-20 -34.5q-29 6 -40 22.5t-11 40.5z" />
<glyph unicode="&#x152;" horiz-adv-x="1734" d="M-6 451q0 125 52 233.5t136 189t188.5 128t209.5 47.5q113 0 212 -15.5t177 -48.5q111 -47 176 -129q14 61 59 97t100.5 56.5t110.5 26.5t90 6q156 0 226.5 -42t70.5 -97q0 -25 -19.5 -48.5t-76.5 -43.5q8 14 8 29q0 33 -16.5 61.5t-44 50t-62.5 33.5t-69 12 q-33 0 -83 -7t-96.5 -24.5t-80 -45t-33.5 -66.5q0 -35 30.5 -69.5t79.5 -65.5q37 -23 82 -42.5t91.5 -32.5t91.5 -20.5t84 -7.5q45 0 79 19q-35 -109 -163 -109q-33 0 -80 11.5t-76 23.5q-68 -12 -146.5 -51t-144.5 -96q-23 -53 -50.5 -100.5t-64.5 -86.5q4 -37 35 -63.5 t78 -46.5q51 -20 109.5 -31.5t111.5 -11.5q141 0 210 41t69 157q0 39 -17 68q43 -18 64.5 -47t21.5 -82q0 -33 -17 -73t-60 -75.5t-116 -59t-185 -23.5q-47 0 -121 6t-142 26q-51 16 -89 45t-46 76q-55 -47 -110 -74q-74 -39 -155 -60.5t-169 -21.5q-76 0 -145.5 34 t-122.5 89.5t-85 125t-32 143.5q0 109 32 203t79 168.5t100 128t94 79.5q-186 -82 -289.5 -219t-130.5 -303q-2 -12 -3 -21.5t-1 -17.5q0 -14 1 -25.5t3 -21.5q-10 18 -15 48t-5 63zM213 360q0 -68 19.5 -128t56.5 -106t90 -72.5t121 -26.5q82 0 159.5 24.5t145.5 67.5 q104 68 174 173t92 247q2 12 3 25.5t1 25.5q0 82 -40 160.5t-113 138.5q-59 47 -139.5 75.5t-178.5 28.5q-96 0 -170 -70.5t-123 -171t-73.5 -208t-24.5 -183.5zM1186 500q53 27 105 47t100 39q-25 12 -49.5 21t-47.5 24q-25 12 -47 26.5t-41 30.5v-60.5t-2 -49.5 q-6 -45 -18 -78z" />
<glyph unicode="&#x153;" horiz-adv-x="1122" d="M45 197q0 76 37 165t104 175q43 55 96.5 93t110.5 38q98 0 167 -55.5t93 -141.5q47 68 104.5 122.5t116.5 68.5q35 0 70 -7.5t64.5 -24t51 -41t30.5 -61.5q-12 -43 -46 -92t-80 -91t-99.5 -68.5t-106.5 -26.5q-31 0 -56.5 11t-35.5 24q-8 -8 -24.5 -53.5t-16.5 -92.5 q0 -55 36.5 -78.5t83.5 -23.5q41 0 100.5 22.5t121.5 65.5q63 43 120.5 102.5t88.5 128.5q-14 -92 -61.5 -157.5t-106.5 -114.5q-63 -53 -134 -78.5t-124 -25.5q-94 0 -140.5 43t-60.5 104q-29 -35 -74 -70q-47 -37 -100 -58.5t-111 -21.5q-106 0 -162.5 60.5t-56.5 159.5z M115 160q0 -45 22.5 -77t81.5 -32t112.5 23.5t98.5 62.5q63 55 104 133t41 154q0 66 -29.5 116t-103.5 50q-45 0 -93 -33t-91 -88q-61 -74 -102 -161t-41 -148zM682 326q4 -8 22.5 -13.5t26.5 -5.5q18 0 62.5 16.5t91.5 45t83 69.5t36 90q0 23 -20.5 46.5t-41.5 25.5 q-31 -2 -64.5 -28.5t-66.5 -61.5q-45 -47 -81 -100t-48 -84z" />
<glyph unicode="&#x178;" horiz-adv-x="552" d="M127 289q0 98 34 205.5t77 218.5q43 106 83.5 207.5t61.5 189.5q8 -37 13 -67.5t5 -61.5q0 -76 -23.5 -149.5t-51.5 -151.5q-37 -94 -71 -193.5t-34 -210.5q0 -10 2 -35.5t8.5 -51t18.5 -46t31 -20.5q18 0 51 37t70.5 93t74.5 123.5t64 127.5q51 123 96 257t82 275 q43 4 61.5 5t36.5 1q-8 -29 -29.5 -95t-51 -158.5t-64.5 -202t-72 -223t-70.5 -223t-61.5 -202t-45 -160t-22 -95.5q-2 -12 -4 -26.5t-2 -29.5q0 -16 3 -28.5t14 -12.5q18 0 31.5 19.5t21.5 42.5q-8 -49 -28.5 -81t-67.5 -32q-37 0 -50.5 29.5t-13.5 73.5q0 31 6 67 q12 57 35 135t49.5 156t53 147.5t47.5 112.5q-23 -29 -45.5 -58.5t-48 -55t-54.5 -46t-61 -28.5q-45 2 -76 21.5t-49.5 49t-26.5 68.5t-8 82zM430 1219q0 18 7.5 35.5t16.5 32t17.5 26.5t8.5 20q41 0 62.5 -15t21.5 -32q0 -16 -11.5 -33.5t-25 -36t-26.5 -36t-17 -33.5 q-31 4 -42.5 24.5t-11.5 47.5zM676 1210q0 20 7.5 39t16.5 34t16 27.5t7 20.5q41 0 63.5 -17.5t22.5 -33.5t-10 -32.5t-24.5 -33t-27.5 -33t-20 -34.5q-29 6 -40 22.5t-11 40.5z" />
<glyph unicode="&#x2c6;" horiz-adv-x="524" d="M145 768q27 4 60 32.5t69 73.5q31 37 59.5 80t55.5 84l62 -12q0 -45 -1 -76.5t-1 -46.5q0 -29 3 -58.5t14 -55t30.5 -47t50.5 -33.5q-57 2 -91 24.5t-50 59.5q-12 27 -17.5 59.5t-5.5 69.5v18h-2q-10 -18 -27.5 -46t-38.5 -56q-29 -37 -60.5 -66t-61.5 -29q-27 0 -48 25z " />
<glyph unicode="&#x2dc;" horiz-adv-x="616" d="M166 819q31 0 53.5 22.5t46.5 45.5q18 16 40 28.5t52 12.5q55 0 85 -16.5t46.5 -37t23.5 -37t15 -16.5q16 0 37 10.5t64 61.5q4 -8 6 -23.5t2 -31.5q0 -18 -9.5 -31.5t-20.5 -23t-23.5 -14.5t-18.5 -5q-31 0 -55.5 18.5t-42.5 41t-31.5 41t-19.5 18.5q-20 0 -45 -16.5 t-49 -37.5q-27 -20 -51.5 -35.5t-49.5 -15.5q-45 0 -55 41z" />
<glyph unicode="&#x2000;" horiz-adv-x="710" />
<glyph unicode="&#x2001;" horiz-adv-x="1421" />
<glyph unicode="&#x2002;" horiz-adv-x="710" />
<glyph unicode="&#x2003;" horiz-adv-x="1421" />
<glyph unicode="&#x2004;" horiz-adv-x="473" />
<glyph unicode="&#x2005;" horiz-adv-x="355" />
<glyph unicode="&#x2006;" horiz-adv-x="236" />
<glyph unicode="&#x2007;" horiz-adv-x="236" />
<glyph unicode="&#x2008;" horiz-adv-x="177" />
<glyph unicode="&#x2009;" horiz-adv-x="284" />
<glyph unicode="&#x200a;" horiz-adv-x="78" />
<glyph unicode="&#x2010;" horiz-adv-x="591" d="M119 487q78 0 140.5 13.5t117.5 13.5q29 0 61.5 -1t62 -2t52 -4t33.5 -9q-158 -70 -332 -70q-45 0 -83 11.5t-52 47.5z" />
<glyph unicode="&#x2011;" horiz-adv-x="591" d="M119 487q78 0 140.5 13.5t117.5 13.5q29 0 61.5 -1t62 -2t52 -4t33.5 -9q-158 -70 -332 -70q-45 0 -83 11.5t-52 47.5z" />
<glyph unicode="&#x2012;" horiz-adv-x="591" d="M119 487q78 0 140.5 13.5t117.5 13.5q29 0 61.5 -1t62 -2t52 -4t33.5 -9q-158 -70 -332 -70q-45 0 -83 11.5t-52 47.5z" />
<glyph unicode="&#x2013;" horiz-adv-x="1892" d="M119 528q27 -10 81 -17t117 -7h244q88 0 195.5 2t214 3t202 3t160.5 2q211 0 337 -7t177 -38q-70 -4 -194.5 -9t-271 -10.5t-300 -9.5t-280.5 -8t-213 -6t-99 -2q-104 0 -174.5 6t-114.5 19.5t-62.5 32.5t-18.5 46z" />
<glyph unicode="&#x2014;" horiz-adv-x="1185" d="M117 520v8q16 -10 49 -17t72 -7h151q53 0 119.5 2t132.5 3t125 3t98 2q129 0 208 -7t108 -38q-43 -4 -120 -9t-168 -10.5t-186.5 -9.5t-174 -8t-132 -6t-59.5 -2q-125 0 -174 22.5t-49 73.5z" />
<glyph unicode="&#x2018;" horiz-adv-x="223" d="M193 961q0 23 3 56.5t11 68t22 67.5t37 53q0 -18 6.5 -29.5t13.5 -22.5t13 -24.5t6 -33.5q0 -29 -18.5 -81t-18.5 -106q0 -18 8.5 -40.5t34.5 -55.5q-4 -6 -18 -6q-43 0 -71.5 33.5t-28.5 120.5z" />
<glyph unicode="&#x2019;" horiz-adv-x="212" d="M123 809q16 31 25.5 58.5t15.5 53l12 51t17 54.5q10 33 26 73t47 93q20 -14 36.5 -35.5t16.5 -50.5q0 -20 -12 -52t-33 -69q-31 -55 -72.5 -107.5t-78.5 -68.5z" />
<glyph unicode="&#x201a;" horiz-adv-x="212" d="M-29 -158q16 33 24.5 60.5t14.5 54.5t12.5 52.5t18.5 56.5q10 33 26.5 70.5t47.5 88.5q20 -14 35.5 -34.5t15.5 -49.5q0 -20 -13.5 -55t-33.5 -74q-29 -53 -70 -103t-78 -67z" />
<glyph unicode="&#x201c;" horiz-adv-x="391" d="M193 961q0 23 2 51t10 61q8 37 22 73.5t39 59.5q0 -18 6.5 -29.5t13.5 -22.5t13 -24.5t6 -33.5q0 -29 -18.5 -81t-18.5 -106q0 -18 8.5 -40.5t34.5 -55.5q-4 -6 -18 -6q-43 0 -71.5 33.5t-28.5 120.5zM340 1004q0 8 1 31.5t7 51t18 54.5t35 43q-2 -4 -2 -15 q0 -16 6.5 -26t12.5 -19.5t12 -21.5t6 -31q0 -31 -6 -65.5t-6 -71.5q0 -33 6 -63.5t23 -51.5h-13q-23 0 -41 15.5t-31.5 42t-20.5 59.5t-7 68z" />
<glyph unicode="&#x201d;" horiz-adv-x="372" d="M123 809q18 35 28.5 64.5t17.5 59.5t14 59.5t20 64.5q8 27 24 60.5t39 74.5q20 -14 36.5 -35.5t16.5 -50.5q0 -18 -12 -51t-33 -70q-31 -55 -71.5 -107.5t-79.5 -68.5zM246 805q20 35 32.5 63.5t22.5 55t19.5 53.5t23.5 57q14 27 30.5 60.5t41.5 74.5q27 -10 40 -24.5 t13 -40.5q0 -27 -14.5 -63.5t-40.5 -77.5q-31 -51 -76 -95.5t-92 -62.5z" />
<glyph unicode="&#x201e;" horiz-adv-x="372" d="M-27 -139q16 35 25.5 64.5t18 58t15.5 58.5t19 67q10 29 25.5 61.5t40.5 73.5q20 -14 36.5 -35t16.5 -49q0 -18 -11.5 -49t-31.5 -68q-29 -57 -71 -110.5t-83 -71.5zM94 -143q20 33 32.5 58.5t22 50t17.5 47t18 48.5q12 31 31.5 69t50.5 91q27 -10 40 -25.5t13 -39.5 q0 -27 -16 -66t-41 -80q-33 -49 -77 -92t-91 -61z" />
<glyph unicode="&#x2022;" horiz-adv-x="536" d="M209 469q0 33 14.5 71t41 70.5t66.5 55t91 22.5q2 -8 18.5 -16t35 -22.5t33.5 -38t15 -62.5q0 -31 -11 -64.5t-33.5 -63.5t-55.5 -48.5t-74 -18.5q-141 10 -141 115z" />
<glyph unicode="&#x2026;" horiz-adv-x="2060" d="M289 20q0 49 14 95q14 41 30.5 76t20.5 55q39 0 58.5 -26.5t19.5 -55.5t-10 -56.5t-27 -56.5q-16 -31 -33.5 -61.5t-25.5 -63.5q-47 23 -47 94zM1004 20q0 25 5 50.5t13 48.5q12 43 27.5 76t19.5 51q39 0 59.5 -26.5t20.5 -55.5q0 -27 -9.5 -51.5t-23.5 -49.5 q-18 -35 -37.5 -67.5t-27.5 -69.5q-47 23 -47 94zM1692 20q0 29 6 56.5t14 54.5q12 37 26.5 67t18.5 48q39 0 58.5 -26.5t19.5 -55.5q0 -27 -8 -50.5t-21 -47.5q-18 -35 -38.5 -69t-28.5 -71q-47 23 -47 94z" />
<glyph unicode="&#x202f;" horiz-adv-x="284" />
<glyph unicode="&#x2039;" horiz-adv-x="425" d="M102 477q10 29 50.5 56.5t91.5 54.5q53 29 105 56.5t79 51.5l-2 -16q-8 -47 -49 -83t-90 -69q-41 -27 -77 -54.5t-44 -59.5q27 -47 73 -96.5t128 -100.5q-49 8 -97.5 32.5t-85.5 60.5t-59.5 79t-22.5 88z" />
<glyph unicode="&#x203a;" horiz-adv-x="425" d="M76 217l4 16q4 37 30.5 66t61.5 55q25 18 52.5 36t51 36t40 36.5t22.5 37.5q-16 25 -32.5 49t-41.5 49q-27 27 -57.5 51.5t-69.5 46.5q43 -6 86 -25.5t78 -49.5q45 -37 72.5 -85.5t27.5 -99.5q-6 -18 -24.5 -34.5t-44.5 -34.5q-31 -20 -69 -41t-73.5 -39.5t-66.5 -36 t-47 -33.5z" />
<glyph unicode="&#x205f;" horiz-adv-x="355" />
<glyph unicode="&#x20ac;" horiz-adv-x="1017" d="M25 418q31 0 59.5 1t54.5 3q8 59 31 125q-47 4 -71.5 16t-37.5 39q35 0 69 1t65 3l8 17q43 88 107.5 165.5t145.5 135t175 90.5t194 33q33 0 63 -16.5t53.5 -43t37.5 -60.5t14 -69q0 -41 -10 -55q-8 23 -20.5 49.5t-28.5 49t-39 37.5t-51 15q-72 0 -143.5 -24.5 t-141.5 -69.5t-132 -105.5t-112 -131.5q49 6 95 6h83t81.5 -2t67.5 -5.5t42 -9.5q-100 -31 -205.5 -47t-206.5 -20q-14 -27 -24 -56.5t-15 -54.5q35 4 70 7t68 3q86 0 165.5 -2t108.5 -14q-102 -31 -208.5 -47t-211.5 -21v-14q0 -63 24.5 -114.5t64.5 -88.5t89.5 -57 t98.5 -20q92 0 178 34.5t162 87t138 113.5t105 113q4 -4 5 -23q0 -27 -24 -59.5t-57.5 -66.5t-72.5 -65.5t-68 -52.5q-104 -78 -216.5 -126t-198.5 -48q-70 0 -128.5 30t-100.5 81t-65.5 119.5t-23.5 148.5v10q-47 4 -72.5 15.5t-37.5 40.5z" />
<glyph unicode="&#x2122;" horiz-adv-x="1103" d="M170 981q0 6 1 14.5t3 18.5q18 -14 29.5 -18.5t46.5 -4.5t149 13q6 8 14.5 25.5t12.5 25.5q18 -14 23 -51q14 2 28.5 2h28.5q133 0 156 -9q2 20 8 27h20q10 0 18.5 -1t18.5 -3l18 -6q-12 -61 -21 -120.5t-9 -119.5q0 -41 6 -78t22 -71q51 76 80 150.5t37 156.5 q49 0 98 -12q-20 -66 -52 -162t-32 -228q0 -68 17.5 -126t71.5 -70q27 2 69.5 24.5t77.5 55.5q-39 -61 -76 -91t-86 -34q-78 0 -114.5 46t-36.5 157q0 25 2 50t4 56q-12 -14 -24.5 -26.5t-22.5 -16.5q-47 2 -73 40t-36 83q-14 -55 -33.5 -116.5t-43 -117t-53.5 -98.5 t-62 -63q16 35 40.5 111.5t52 170.5t54.5 195.5t47 187.5q-12 0 -27.5 1t-43.5 1q-25 0 -53.5 -1t-86.5 -3q-53 -154 -92 -278.5t-39 -218.5q0 -33 10 -33q23 0 39 28q2 -2 2 -12q-4 -14 -11 -34.5t-40 -20.5q-39 0 -51 33.5t-12 81.5q0 111 39 226.5t84 219.5q-27 0 -59 -4 t-62 -4q-43 0 -59.5 11t-16.5 40z" />
<glyph unicode="&#x25fc;" horiz-adv-x="686" d="M0 0v686h686v-686h-686z" />
<glyph unicode="&#xfb01;" horiz-adv-x="686" d="M-2 504q0 27 18 43q10 -31 52.5 -38t85.5 -7q6 43 18 111.5t31.5 145.5t46 157.5t63.5 148.5q45 86 103.5 142.5t136.5 56.5t121 -46.5t43 -138.5q0 -90 -34 -171t-94.5 -148.5t-141 -120.5t-173.5 -88l-8 -51q98 8 207 33.5t201 76.5q-33 -61 -57.5 -139t-42 -151.5 t-25.5 -133t-8 -82.5q0 -31 5 -50t15 -19q23 0 46.5 19.5t44 48t37 60.5t26.5 56q4 -12 4 -26q0 -29 -12.5 -62t-35 -63.5t-53 -56t-67.5 -38.5q-61 0 -91 58.5t-30 132.5q0 63 8 112.5t22.5 89.5t35 74.5t45.5 71.5q-76 -20 -140.5 -31.5t-134.5 -19.5q-4 -23 -9 -76 t-11 -122.5t-13.5 -147.5t-13.5 -154t-13 -141.5t-13 -106.5q-4 -37 -29 -97t-74 -120q-4 27 -4 57.5v67.5q0 104 7 236.5t16.5 254t19.5 217t16 130.5q-47 2 -75.5 6t-45 9t-21.5 12.5t-5 17.5zM276 578q74 31 142.5 76.5t123 107t86 139.5t31.5 170q0 25 -3 50.5t-12 45 t-25.5 32.5t-43.5 13q-70 0 -115.5 -54t-78.5 -136q-23 -55 -39 -118.5t-27.5 -123t-20.5 -113t-18 -89.5z" />
<glyph unicode="&#xfb02;" horiz-adv-x="649" d="M-2 504q0 27 18 43q10 -31 52.5 -38t85.5 -7q4 41 14 105.5t26.5 138t39 151.5t51.5 143q37 98 90 161t121 63q66 0 108.5 -42t42.5 -130q0 -180 -97 -324.5t-276 -216.5l-8 -51q70 0 140.5 29.5t130.5 72.5q27 102 58.5 202.5t61 196t54 185.5t37.5 170q33 -68 32 -154 q0 -47 -10 -104q-4 -25 -17.5 -75t-30.5 -116.5t-37.5 -141.5t-39 -146.5t-34 -135t-21.5 -106.5q-4 -23 -10.5 -62t-11.5 -83t-9 -88t-4 -76q0 -61 16 -62q14 0 29.5 11.5t30 26.5t28 32.5t21.5 27.5q-8 -59 -45 -97t-80 -38q-59 0 -81.5 35t-22.5 105q0 35 5 87t14 112.5 t22.5 125t31.5 123.5q-55 -49 -123.5 -72.5t-134.5 -23.5q-4 -23 -9 -76t-11 -122.5t-13.5 -147.5t-13.5 -154t-13 -141.5t-13 -106.5q-4 -37 -29 -97t-74 -120q-4 27 -4 57.5v67.5q0 104 7 236.5t16.5 254t19.5 217t16 130.5q-47 2 -75.5 6t-45 9t-21.5 12.5t-5 17.5z M276 578q137 59 225.5 188t88.5 311q0 23 -3 47.5t-11.5 44t-23 31.5t-34.5 12q-51 0 -87 -50t-66 -144q-25 -86 -46.5 -195.5t-42.5 -244.5z" />
</font>
</defs>
</svg>
