<?xml version="1.0" standalone="no"?>
<!DOCTYPE svg PUBLIC "-//W3C//DTD SVG 1.1//EN" "http://www.w3.org/Graphics/SVG/1.1/DTD/svg11.dtd" >
<svg xmlns="http://www.w3.org/2000/svg">
<metadata></metadata>
<defs>
<font id="open_sans_webregular" horiz-adv-x="2048" >
<font-face units-per-em="2048" ascent="1638" descent="-410" />
<missing-glyph horiz-adv-x="532" />
<glyph horiz-adv-x="0" />
<glyph unicode="&#xd;" />
<glyph />
<glyph />
<glyph unicode=" "  horiz-adv-x="532" />
<glyph unicode="&#x09;" horiz-adv-x="532" />
<glyph unicode="&#xa0;" horiz-adv-x="532" />
<glyph unicode="!" horiz-adv-x="547" d="M152 106q0 136 120 136q58 0 89.5 -35t31.5 -101q0 -64 -32 -99t-89 -35q-52 0 -86 31t-34 103zM170 1462h207l-51 -1059h-105z" />
<glyph unicode="&#x22;" horiz-adv-x="821" d="M133 1462h186l-40 -528h-105zM502 1462h186l-41 -528h-104z" />
<glyph unicode="#" horiz-adv-x="1323" d="M51 430v129h287l68 340h-277v127h299l82 436h139l-82 -436h305l84 436h134l-84 -436h264v-127h-289l-66 -340h283v-129h-307l-84 -430h-137l84 430h-303l-82 -430h-136l80 430h-262zM475 559h303l66 340h-303z" />
<glyph unicode="$" horiz-adv-x="1171" d="M131 170v156q42 -19 89.5 -34.5t101.5 -26.5q55 -12 104 -17.5t94 -5.5v440q-204 64 -288 151q-82 85 -82 222q0 131 101 215q102 84 269 102v182h129v-180q183 -4 355 -74l-52 -131q-75 29 -150 47t-153 23v-434q155 -49 235 -98q78 -48 115 -109t37 -149 q0 -137 -102 -225q-102 -89 -285 -111v-231h-129v222q-57 0 -110.5 4.5t-106.5 12.5q-106 18 -172 49zM319 1057q0 -76 45 -122q45 -47 156 -87v387q-100 -16 -150.5 -62.5t-50.5 -115.5zM649 252q217 30 217 184q0 71 -45 116q-46 46 -172 89v-389z" />
<glyph unicode="%" horiz-adv-x="1686" d="M104 1026q0 457 295 457q72 0 128.5 -30.5t94.5 -88.5t58 -143.5t20 -194.5q0 -229 -76 -345t-225 -116q-141 0 -218 118.5t-77 342.5zM242 1026q0 -171 36.5 -255.5t120.5 -84.5q164 0 164 340q0 338 -164 338q-84 0 -120.5 -83.5t-36.5 -254.5zM365 0l811 1462h147 l-811 -1462h-147zM985 440q0 457 295 457q143 0 222 -117t79 -340q0 -229 -76 -344t-225 -115q-143 0 -219 118t-76 341zM1122 440q0 -172 36.5 -256t121.5 -84t124.5 83t39.5 257q0 172 -39.5 254t-124.5 82t-121.5 -82t-36.5 -254z" />
<glyph unicode="&#x26;" horiz-adv-x="1495" d="M113 379q0 129 69 230q70 100 250 202q-43 48 -71.5 83.5t-44.5 60.5q-30 49 -48 102t-18 110q0 150 98 234q97 84 273 84q162 0 255 -84q93 -83 93 -232q0 -106 -68 -198q-68 -90 -225 -183l407 -391q56 62 89.5 145.5t56.5 182.5h168q-67 -284 -205 -434l299 -291h-229 l-185 178q-117 -105 -240 -152q-122 -45 -272 -45q-217 0 -334 105q-118 106 -118 293zM285 383q0 -118 77 -186t207 -68q242 0 400 154l-437 424q-56 -34 -95 -62t-62 -51q-46 -45 -68 -95t-22 -116zM414 1171q0 -69 36 -132q36 -62 123 -150q130 76 179 138q51 64 51 147 q0 39 -13.5 71t-38 55t-59.5 35.5t-78 12.5q-90 0 -145 -48t-55 -129z" />
<glyph unicode="'" horiz-adv-x="453" d="M133 1462h186l-40 -528h-105z" />
<glyph unicode="(" horiz-adv-x="606" d="M82 561q0 266 77 496t224 405h162q-145 -194 -217 -424t-72 -475q0 -238 74 -469q73 -228 213 -417h-160q-148 171 -224.5 396t-76.5 488z" />
<glyph unicode=")" horiz-adv-x="606" d="M61 1462h162q148 -177 224 -407q77 -233 77 -494q0 -265 -77 -490t-224 -394h-160q139 187 213 416q74 231 74 470q0 245 -72 475t-217 424z" />
<glyph unicode="*" horiz-adv-x="1130" d="M86 1090l29 182l391 -111l-43 395h194l-43 -395l398 111l26 -182l-381 -31l248 -326l-172 -94l-176 362l-160 -362l-176 94l242 326z" />
<glyph unicode="+" horiz-adv-x="1171" d="M104 653v138h410v428h139v-428h412v-138h-412v-426h-139v426h-410z" />
<glyph unicode="," horiz-adv-x="502" d="M63 -263q14 52 28.5 116t30.5 141q17 76 28 137t18 107h182l15 -23q-26 -101 -75 -231q-49 -131 -102 -247h-125z" />
<glyph unicode="-" horiz-adv-x="659" d="M84 473v152h491v-152h-491z" />
<glyph unicode="." horiz-adv-x="545" d="M152 106q0 67 30.5 101.5t87.5 34.5q58 0 90.5 -34.5t32.5 -101.5q0 -66 -33 -100t-90 -34q-51 0 -84.5 31t-33.5 103z" />
<glyph unicode="/" horiz-adv-x="752" d="M20 0l545 1462h166l-545 -1462h-166z" />
<glyph unicode="0" horiz-adv-x="1171" d="M102 733q0 382 119 567t363 185q238 0 361.5 -193t123.5 -559q0 -379 -119.5 -565.5t-365.5 -186.5q-236 0 -359 191t-123 561zM270 733q0 -320 75 -465t239 -145q166 0 240 147q75 148 75 463q0 158 -19 273t-56 188q-75 147 -240 147q-164 0 -239 -145 q-75 -144 -75 -463z" />
<glyph unicode="1" horiz-adv-x="1171" d="M188 1163l387 299h140v-1462h-162v1042q0 66 2 127t6 119q-22 -22 -47 -44q-13 -11 -72.5 -59.5t-165.5 -135.5z" />
<glyph unicode="2" horiz-adv-x="1171" d="M100 0v143l385 387q89 89 146.5 152.5t85.5 101.5q56 76 84 148t28 155q0 58 -18.5 105t-53 80t-84 51t-112.5 18q-91 0 -173 -30q-81 -30 -181 -109l-88 113q202 168 440 168q207 0 323 -106q117 -105 117 -283q0 -139 -78 -275q-77 -135 -292 -344l-320 -313v-8h752 v-154h-961z" />
<glyph unicode="3" horiz-adv-x="1171" d="M94 59v158q96 -48 202.5 -72t203.5 -24q379 0 379 297q0 266 -418 266h-144v143h146q170 0 271 75q100 76 100 210q0 54 -19 96.5t-54.5 72t-86 45t-113.5 15.5q-94 0 -181 -26q-84 -25 -194 -96l-84 112q91 72 207.5 112t247.5 40q212 0 331 -98q118 -97 118 -267 q0 -141 -78 -229.5t-223 -118.5v-8q177 -22 261.5 -111.5t84.5 -236.5q0 -210 -145 -322q-144 -111 -412 -111q-116 0 -212.5 17t-187.5 61z" />
<glyph unicode="4" horiz-adv-x="1171" d="M43 336v145l694 989h176v-983h217v-151h-217v-336h-159v336h-711zM209 487h545v486q0 72 2.5 152t7.5 171h-8q-24 -48 -46 -88t-44 -71z" />
<glyph unicode="5" horiz-adv-x="1171" d="M133 59v160q72 -46 174 -71q52 -13 103 -19t102 -6q177 0 274 82.5t97 240.5q0 306 -375 306q-48 0 -111 -7.5t-143 -21.5l-86 55l55 684h727v-153h-585l-37 -439q58 11 115 17t114 6q230 0 363 -115t133 -313q0 -227 -145 -356q-143 -128 -398 -128q-125 0 -218 19 t-159 59z" />
<glyph unicode="6" horiz-adv-x="1171" d="M117 625q0 431 167.5 644.5t495.5 213.5q115 0 178 -19v-143q-75 25 -176 25q-235 0 -359 -146.5t-136 -460.5h12q109 172 348 172q197 0 310 -119q114 -119 114 -323q0 -228 -125 -359q-123 -129 -336 -129q-227 0 -360 169q-133 170 -133 475zM287 506q0 -77 23.5 -147 t66.5 -123t101.5 -84.5t129.5 -30.5q142 2 220.5 90.5t78.5 257.5q0 145 -73 227t-218 84q-67 1 -126.5 -22t-104.5 -61t-71.5 -88t-26.5 -103z" />
<glyph unicode="7" horiz-adv-x="1171" d="M94 1309v153h973v-133l-598 -1329h-184l606 1309h-797z" />
<glyph unicode="8" horiz-adv-x="1171" d="M104 373q0 251 306 391q-138 78 -198 168.5t-60 202.5q0 158 117 253q119 95 315 95q200 0 317 -93t117 -257q0 -108 -67 -197t-214 -162q179 -86 253 -179q75 -93 75 -216q0 -182 -127 -291q-126 -107 -348 -107q-117 0 -207.5 26t-152.5 76t-94 123t-32 167zM268 369 q0 -121 83 -187.5t235 -66.5q150 0 232.5 69.5t82.5 192.5q0 97 -78 172q-78 76 -272 147q-75 -32 -128.5 -67t-88 -74.5t-50.5 -85.5t-16 -100zM315 1128q0 -91 59 -158q58 -66 218 -132q144 61 202 129q60 69 60 161q0 100 -73 160q-74 60 -199 60q-126 0 -196 -60 q-71 -60 -71 -160z" />
<glyph unicode="9" horiz-adv-x="1171" d="M106 991q0 229 127 360q64 66 147.5 98t188.5 34q111 1 202 -43.5t155.5 -128.5t99.5 -203.5t35 -269.5q-2 -429 -167 -643t-497 -214q-58 0 -104 5t-80 14v143q81 -26 182 -26q240 0 362.5 148.5t133.5 455.5h-12q-55 -84 -145.5 -127t-205.5 -43q-194 0 -308 116 q-114 115 -114 324zM270 993q0 -144 72 -225.5t219 -83.5q68 -1 128.5 22t106 61t71.5 87t26 102q0 78 -24.5 148.5t-67 123t-102 83.5t-130.5 30q-144 -2 -221.5 -92.5t-77.5 -255.5z" />
<glyph unicode=":" horiz-adv-x="545" d="M152 106q0 67 30.5 101.5t87.5 34.5q58 0 90.5 -34.5t32.5 -101.5q0 -66 -33 -100t-90 -34q-51 0 -84.5 31t-33.5 103zM152 989q0 135 118 135q123 0 123 -135q0 -66 -33 -100.5t-90 -34.5q-51 0 -84.5 31.5t-33.5 103.5z" />
<glyph unicode=";" horiz-adv-x="545" d="M63 -263q14 52 28.5 116t30.5 141q17 76 28 137t18 107h182l15 -23q-26 -101 -75 -231q-49 -131 -102 -247h-125zM147 989q0 135 119 135q123 0 123 -135q0 -66 -33 -100.5t-90 -34.5q-58 0 -88.5 34.5t-30.5 100.5z" />
<glyph unicode="&#x3c;" horiz-adv-x="1171" d="M104 664v98l961 479v-149l-782 -371l782 -328v-151z" />
<glyph unicode="=" horiz-adv-x="1171" d="M119 449v137h930v-137h-930zM119 858v137h930v-137h-930z" />
<glyph unicode="&#x3e;" horiz-adv-x="1171" d="M104 242v151l783 326l-783 373v149l961 -479v-98z" />
<glyph unicode="?" horiz-adv-x="879" d="M27 1384q189 99 395 99q191 0 297 -94t106 -265q0 -72 -20 -129q-20 -56 -57 -105q-37 -48 -164 -159q-101 -86 -134 -143q-32 -58 -32 -152v-33h-129v54q0 117 36 192q35 75 134 160q138 116 171 173q36 58 36 140q0 103 -65 158t-189 55q-81 0 -154 -19 q-76 -18 -172 -67zM240 106q0 136 120 136q58 0 89.5 -35t31.5 -101q0 -64 -32 -99t-89 -35q-52 0 -86 31t-34 103z" />
<glyph unicode="@" horiz-adv-x="1841" d="M121 571q0 260 107 463t305 314q197 112 454 112q214 0 382 -91q168 -92 259 -257q92 -167 92 -383q0 -140 -44 -260q-45 -118 -124 -183t-184 -65q-87 0 -145 52q-60 54 -70 133h-8q-40 -88 -114 -136.5t-177 -48.5q-151 0 -235 102t-84 279q0 204 118 331 q119 128 310 128q34 0 72.5 -3t81.5 -10q43 -6 81.5 -14.5t73.5 -19.5l-25 -470v-22q0 -178 133 -178q91 0 148 107q29 54 42.5 123.5t14.5 156.5q1 135 -42 245.5t-122.5 189.5t-190 122t-243.5 43q-167 0 -302 -54t-230 -153t-145.5 -238t-49.5 -308q2 -153 41 -270 t120 -199q160 -163 464 -163q106 0 214 21.5t222 63.5v-132q-192 -84 -436 -84q-363 0 -564 198q-200 200 -200 558zM686 598q0 -254 195 -254q209 0 225 313l14 261q-74 20 -157 20q-65 0 -116.5 -23t-87 -67t-54.5 -107t-19 -143z" />
<glyph unicode="A" horiz-adv-x="1296" d="M0 0l578 1468h143l575 -1468h-176l-182 465h-586l-180 -465h-172zM412 618h473l-170 453q-16 43 -33.5 95.5t-34.5 115.5q-11 -48 -26 -101t-37 -110z" />
<glyph unicode="B" horiz-adv-x="1327" d="M201 0v1462h413q290 0 421 -87q130 -87 130 -275q0 -131 -72 -215t-212 -109v-10q333 -57 333 -350q0 -197 -133 -306q-133 -110 -370 -110h-510zM371 145h305q178 0 267 68t89 215q0 137 -91 200.5t-279 63.5h-291v-547zM371 836h280q179 0 259 56q79 57 79 191 q0 123 -88 177.5t-280 54.5h-250v-479z" />
<glyph unicode="C" horiz-adv-x="1292" d="M125 733v7q0 165 48 301q49 139 141 237t222 152q128 53 287 53h6q115 -1 215 -21.5t187 -62.5l-72 -146q-167 78 -332 78q-241 0 -381 -161q-139 -160 -139 -439q0 -288 134 -444q133 -156 384 -156q154 0 349 55v-149q-153 -56 -375 -56q-325 0 -499 195 q-88 99 -130.5 237t-44.5 320z" />
<glyph unicode="D" horiz-adv-x="1493" d="M201 0v1462h448q341 0 530 -189t189 -528q0 -362 -197 -554q-197 -191 -565 -191h-405zM371 147h207q304 0 457 149.5t153 442.5q0 286 -143.5 431t-426.5 145h-247v-1168z" />
<glyph unicode="E" horiz-adv-x="1139" d="M201 0v1462h815v-151h-645v-471h606v-150h-606v-538h645v-152h-815z" />
<glyph unicode="F" horiz-adv-x="1057" d="M201 0v1462h815v-151h-645v-535h606v-151h-606v-625h-170z" />
<glyph unicode="G" horiz-adv-x="1491" d="M125 731q0 229 91 399q93 173 264 263t403 90t436 -86l-66 -150q-198 84 -381 84q-267 0 -417 -159t-150 -441q0 -298 144 -450t425 -152q149 0 297 35v450h-327v152h497v-711q-58 -19 -117 -32.5t-119 -22.5q-60 -10 -129.5 -14.5t-148.5 -4.5q-333 0 -517 196 q-185 199 -185 554z" />
<glyph unicode="H" horiz-adv-x="1511" d="M201 0v1462h170v-622h770v622h170v-1462h-170v688h-770v-688h-170z" />
<glyph unicode="I" horiz-adv-x="571" d="M201 0v1462h170v-1462h-170z" />
<glyph unicode="J" horiz-adv-x="547" d="M-159 -212q72 -20 148 -20q99 0 150 59.5t51 172.5v1462h170v-1448q0 -95 -24.5 -169t-71.5 -125t-116 -77.5t-159 -26.5q-94 0 -148 27v145z" />
<glyph unicode="K" horiz-adv-x="1257" d="M201 0v1462h170v-725l663 725h201l-588 -635l610 -827h-200l-533 709l-153 -136v-573h-170z" />
<glyph unicode="L" horiz-adv-x="1063" d="M201 0v1462h170v-1308h645v-154h-815z" />
<glyph unicode="M" horiz-adv-x="1849" d="M201 0v1462h256l463 -1206h8l467 1206h254v-1462h-170v942q0 81 3.5 168.5t10.5 183.5h-8l-500 -1294h-137l-496 1296h-8q7 -78 10.5 -169t3.5 -197v-930h-157z" />
<glyph unicode="N" horiz-adv-x="1544" d="M201 0v1462h192l797 -1222h8l-9 173q-4 74 -4.5 126t-0.5 84v839h159v-1462h-194l-799 1227h-8q8 -109 12 -207t4 -189v-831h-157z" />
<glyph unicode="O" horiz-adv-x="1595" d="M125 735q0 356 176 553t500 197q315 0 492 -200t177 -552t-178 -552q-176 -200 -493 -200q-324 0 -499 196q-175 197 -175 558zM305 733q0 -299 126 -451.5t368 -152.5q244 0 367.5 152t123.5 452q0 295 -123.5 447.5t-365.5 152.5q-244 0 -370 -152.5t-126 -447.5z" />
<glyph unicode="P" horiz-adv-x="1233" d="M201 0v1462h379q548 0 548 -426q0 -111 -38.5 -197t-113 -144.5t-183.5 -89t-250 -30.5h-172v-575h-170zM371 721h153q227 0 327 73q101 74 101 234q0 145 -95 216t-296 71h-190v-594z" />
<glyph unicode="Q" horiz-adv-x="1595" d="M125 735q0 356 176 553t500 197q315 0 492 -200t177 -552q0 -280 -113 -467q-112 -186 -319 -252l348 -361h-247l-285 330l-55 -2q-17 -1 -33 -1q-142 0 -254 46q-124 52 -212 151q-175 197 -175 558zM305 733q0 -299 126 -451.5t368 -152.5q244 0 367.5 152t123.5 452 q0 295 -123.5 447.5t-365.5 152.5q-244 0 -370 -152.5t-126 -447.5z" />
<glyph unicode="R" horiz-adv-x="1266" d="M201 0v1462h401q269 0 397.5 -103t128.5 -310q0 -290 -294 -392l397 -657h-201l-354 608h-305v-608h-170zM371 754h233q180 0 264 71.5t84 214.5q0 72 -21 124t-64.5 85t-112 48.5t-162.5 15.5h-221v-559z" />
<glyph unicode="S" horiz-adv-x="1124" d="M106 47v164q91 -38 196 -60t210 -22q171 0 256.5 64.5t85.5 179.5q0 74 -31 124q-32 51 -102 90q-69 40 -217 93q-205 74 -292 173q-87 100 -87 261q0 169 127 269t336 100q217 0 401 -80l-53 -148q-180 76 -352 76q-135 0 -211 -58t-76 -161q0 -76 28 -125 q29 -49 94 -89q34 -20 84.5 -42t119.5 -47q115 -42 194 -85t122 -91q87 -95 87 -244q0 -193 -140 -301q-138 -107 -380 -107q-131 0 -230.5 16t-169.5 50z" />
<glyph unicode="T" horiz-adv-x="1133" d="M18 1311v151h1096v-151h-463v-1311h-170v1311h-463z" />
<glyph unicode="U" horiz-adv-x="1491" d="M186 520v942h170v-954q0 -184 99.5 -281.5t294.5 -97.5q186 0 285.5 98t99.5 283v952h170v-946q0 -251 -151 -393t-415 -142q-265 0 -409 143q-144 144 -144 396z" />
<glyph unicode="V" horiz-adv-x="1219" d="M0 1462h180l336 -946q29 -82 52 -160.5t40 -156.5q18 81 41.5 161.5t52.5 161.5l334 940h183l-527 -1462h-168z" />
<glyph unicode="W" horiz-adv-x="1896" d="M27 1462h180l231 -903q24 -96 41.5 -181t28.5 -163q14 92 34 181t46 177l262 889h180l275 -897q48 -154 81 -350q19 141 72 346l230 901h180l-391 -1462h-168l-295 979q-10 32 -22 73t-25 91q-25 99 -27 119q-11 -66 -29 -138t-41 -151l-286 -973h-168z" />
<glyph unicode="X" horiz-adv-x="1182" d="M8 0l486 764l-453 698h188l363 -579l366 579h181l-453 -692l488 -770h-193l-393 643l-400 -643h-180z" />
<glyph unicode="Y" horiz-adv-x="1147" d="M0 1462h186l387 -731l390 731h184l-488 -895v-567h-172v559z" />
<glyph unicode="Z" horiz-adv-x="1169" d="M82 0v133l776 1176h-752v153h959v-133l-776 -1175h798v-154h-1005z" />
<glyph unicode="[" horiz-adv-x="674" d="M166 -323v1785h457v-141h-289v-1502h289v-142h-457z" />
<glyph unicode="\" horiz-adv-x="752" d="M23 1462h163l547 -1462h-166z" />
<glyph unicode="]" horiz-adv-x="674" d="M51 -181h289v1502h-289v141h457v-1785h-457v142z" />
<glyph unicode="^" horiz-adv-x="1110" d="M49 551l434 922h99l477 -922h-152l-372 745l-334 -745h-152z" />
<glyph unicode="_" horiz-adv-x="918" d="M-3 -183h925v-131h-925v131z" />
<glyph unicode="`" horiz-adv-x="1182" d="M393 1548v21h203q16 -35 38 -74.5t51 -85.5q57 -90 101 -143v-25h-110q-32 26 -70.5 63t-83.5 85q-89 96 -129 159z" />
<glyph unicode="a" horiz-adv-x="1139" d="M94 303q0 331 531 348l186 6v68q0 130 -55 191t-178 61q-138 0 -310 -84l-51 127q81 45 177.5 69.5t193.5 24.5q196 0 290.5 -87t94.5 -279v-748h-123l-33 156h-8q-82 -103 -164 -140q-82 -35 -203 -35q-164 0 -256 83q-92 84 -92 239zM268 301q0 -91 54 -137.5 t153 -46.5q155 0 243 85q89 86 89 238v99l-166 -7q-99 -4 -169.5 -19t-116 -43t-66.5 -70t-21 -99z" />
<glyph unicode="b" horiz-adv-x="1255" d="M176 0v1556h166v-378q0 -64 -2 -120.5t-6 -107.5h8q116 164 344 164q215 0 335 -148q120 -149 120 -417q0 -271 -121 -420q-120 -148 -334 -148q-108 0 -196 39t-148 121h-12l-35 -141h-119zM342 549q0 -230 77 -331q76 -99 247 -99q153 0 228 111.5t75 320.5 q0 215 -74.5 319.5t-232.5 104.5q-170 0 -245 -98t-75 -328z" />
<glyph unicode="c" horiz-adv-x="975" d="M115 541q0 275 132 425q133 150 378 150q40 0 79 -4.5t79 -12.5t70.5 -18.5t53.5 -21.5l-51 -141q-56 22 -120 36q-65 15 -115 15q-334 0 -334 -426q0 -202 81.5 -310t241.5 -108q136 0 281 59v-147q-110 -56 -277 -56q-239 0 -369 145q-130 146 -130 415z" />
<glyph unicode="d" horiz-adv-x="1255" d="M115 545q0 271 120 421t334 150q223 0 342 -162h13l-7 79l-4 77v446h166v-1556h-135l-22 147h-9q-115 -166 -344 -166q-216 0 -335 146q-119 148 -119 418zM287 543q0 -211 76.5 -317.5t226.5 -106.5q85 0 146 22.5t100.5 70t58 121.5t18.5 177v35q0 231 -78 332 q-78 100 -247 100q-73 0 -129 -29t-94.5 -84.5t-58 -136.5t-19.5 -184z" />
<glyph unicode="e" horiz-adv-x="1149" d="M115 539q0 266 130 421q130 156 351 156q206 0 326 -136q120 -135 120 -357v-105h-755q5 -194 97 -293.5t261 -99.5q176 0 350 74v-148q-45 -19 -86 -32t-81 -21q-80 -17 -189 -17q-244 0 -384 147q-140 149 -140 411zM291 653h573q0 158 -69.5 241t-200.5 83 q-66 0 -119 -22t-91.5 -64t-62 -102t-30.5 -136z" />
<glyph unicode="f" horiz-adv-x="694" d="M29 967v75l196 60v61q0 404 353 404q85 0 204 -35l-43 -133q-94 31 -164 31q-94 0 -139 -62.5t-45 -200.5v-71h279v-129h-279v-967h-166v967h-196z" />
<glyph unicode="g" horiz-adv-x="1122" d="M39 -185q0 100 64 173q65 73 180 98q-42 19 -70.5 58.5t-28.5 93.5q0 60 32 105t101 87q-84 34 -139 119q-53 85 -53 192q0 181 107.5 278t306.5 97q84 0 155 -20h379v-105l-203 -24q28 -35 50 -91t22 -128q0 -161 -110 -257t-302 -96q-25 0 -47.5 2t-44.5 6 q-106 -55 -106 -141q0 -45 37 -66.5t127 -21.5h194q179 0 274 -74.5t95 -217.5q0 -183 -145.5 -278t-426.5 -95q-108 0 -191.5 20.5t-140.5 59.5t-86.5 96t-29.5 130zM199 -183q0 -90 74.5 -135.5t215.5 -45.5q209 0 309.5 62.5t100.5 169.5q0 90 -55 124q-56 33 -207 33 h-199q-114 0 -176.5 -53t-62.5 -155zM289 745q0 -115 64.5 -174t181.5 -59q243 0 243 236q0 247 -246 247q-118 0 -180.5 -62.5t-62.5 -187.5z" />
<glyph unicode="h" horiz-adv-x="1257" d="M176 0v1556h166v-471q0 -43 -2 -78t-6 -63h10q49 79 139 124.5t207 45.5q201 0 301.5 -95.5t100.5 -303.5v-715h-166v709q0 135 -60.5 200.5t-191.5 65.5q-174 0 -253 -94t-79 -308v-573h-166z" />
<glyph unicode="i" horiz-adv-x="518" d="M162 1393q0 57 28 83.5t70 26.5q40 0 69 -27t29 -83q0 -57 -29 -84t-69 -27q-42 0 -70 27t-28 84zM176 0v1096h166v-1096h-166z" />
<glyph unicode="j" horiz-adv-x="518" d="M-110 -331q71 -20 135 -20q78 0 114.5 42t36.5 130v1275h166v-1263q0 -324 -299 -324q-47 0 -85.5 6t-67.5 19v135zM162 1393q0 57 28 83.5t70 26.5q40 0 69 -27t29 -83q0 -57 -29 -84t-69 -27q-42 0 -70 27t-28 84z" />
<glyph unicode="k" horiz-adv-x="1075" d="M176 0v1556h164v-825q0 -28 -2 -70t-6 -100h8q22 31 53.5 71.5t77.5 88.5l354 375h197l-444 -467l475 -629h-201l-387 518l-125 -108v-410h-164z" />
<glyph unicode="l" horiz-adv-x="518" d="M176 0v1556h166v-1556h-166z" />
<glyph unicode="m" horiz-adv-x="1905" d="M176 0v1096h135l27 -150h8q48 81 133 125.5t191 44.5q256 0 336 -186h8q49 87 141.5 136.5t212.5 49.5q186 0 278.5 -95.5t92.5 -305.5v-715h-166v713q0 132 -56 197t-174 65q-156 0 -229.5 -88.5t-73.5 -274.5v-612h-166v713q0 132 -55.5 197t-175.5 65q-156 0 -229 -94 q-72 -93 -72 -306v-575h-166z" />
<glyph unicode="n" horiz-adv-x="1257" d="M176 0v1096h135l27 -150h8q25 40 61.5 72t81.5 53.5t96.5 33t108.5 11.5q198 0 298 -95.5t100 -305.5v-715h-166v709q0 135 -60.5 200.5t-191.5 65.5q-173 0 -252 -93q-80 -94 -80 -307v-575h-166z" />
<glyph unicode="o" horiz-adv-x="1237" d="M115 549q2 135 34.5 238.5t99.5 178.5q133 150 372 150q230 0 365 -153q136 -152 136 -414q0 -268 -135 -419q-68 -75 -160.5 -111.5t-212.5 -37.5h-5q-107 0 -197 39q-92 40 -158 114q-68 74 -104 180q-36 103 -35 228v7zM287 549q0 -211 83.5 -320.5t247.5 -109.5 t248 109t84 321q0 211 -84 318.5t-250 107.5q-164 0 -246.5 -106t-82.5 -320z" />
<glyph unicode="p" horiz-adv-x="1255" d="M176 -491v1587h135l23 -150h8q64 91 148.5 130.5t195.5 39.5q217 0 336 -149t119 -418q0 -271 -121 -420q-120 -148 -334 -148q-108 0 -196 39t-148 121h-12q12 -96 12 -181v-451h-166zM342 549q0 -230 77 -331q76 -99 247 -99q143 0 222 115q81 115 81 317 q0 206 -80 315t-227 109q-168 0 -243 -93q-38 -47 -57.5 -120.5t-19.5 -175.5v-37z" />
<glyph unicode="q" horiz-adv-x="1255" d="M115 545q0 268 120 420q120 151 334 151q224 0 346 -170h9l24 150h131v-1587h-166v469q0 50 3 92t8 77h-13q-115 -166 -346 -166q-213 0 -331 148q-119 149 -119 416zM287 543q0 -208 76 -316t227 -108q165 0 242 89q38 45 59.5 119.5t21.5 180.5v37q0 230 -78 331 t-247 101q-73 0 -129 -29t-94.5 -84.5t-58 -136.5t-19.5 -184z" />
<glyph unicode="r" horiz-adv-x="836" d="M176 0v1096h137l19 -203h8q61 108 147 165.5t189 57.5q72 0 131 -12l-23 -154q-68 15 -120 15q-134 0 -228 -108q-94 -107 -94 -269v-588h-166z" />
<glyph unicode="s" horiz-adv-x="977" d="M106 827q0 135 109 211q109 78 299 78q176 0 346 -72l-59 -135q-166 68 -299 68q-118 0 -178 -36.5t-60 -102.5q0 -44 22 -75q11 -16 29.5 -30.5t43.5 -28.5q49 -29 192 -81q195 -71 263 -143q69 -72 69 -181q0 -154 -114 -236q-113 -82 -320 -82q-220 0 -340 68v154 q79 -40 169 -63t175 -23q131 0 200.5 41.5t69.5 126.5q0 64 -56 109q-56 46 -216 108q-154 57 -218 99q-64 43 -95.5 97t-31.5 129z" />
<glyph unicode="t" horiz-adv-x="723" d="M31 967v80l157 69l70 234h96v-254h318v-129h-318v-645q0 -100 47 -152.5t129 -52.5q45 0 85.5 6.5t64.5 13.5v-127q-14 -7 -34 -11.5t-46 -8.5q-53 -9 -94 -9q-318 0 -318 334v652h-157z" />
<glyph unicode="u" horiz-adv-x="1257" d="M164 379v717h168v-711q0 -135 60.5 -200.5t191.5 -65.5q172 0 251 94q80 95 80 307v576h166v-1096h-137l-24 147h-9q-51 -81 -141 -123.5t-207 -42.5q-200 0 -299.5 94.5t-99.5 303.5z" />
<glyph unicode="v" horiz-adv-x="1026" d="M0 1096h178l236 -650q42 -114 64.5 -188t29.5 -108h8q10 52 69 219q29 84 94.5 265t168.5 462h178l-416 -1096h-194z" />
<glyph unicode="w" horiz-adv-x="1593" d="M23 1096h174q54 -208 93.5 -364t67.5 -265t44 -181t20 -110h8q5 29 14 65.5t21 81.5q13 46 24 82t19 62l201 629h180l196 -629q27 -87 46.5 -158.5t29.5 -130.5h8q4 36 21 111q9 37 61.5 239t147.5 568h172l-303 -1096h-197l-201 643q-9 29 -27 96t-44 172h-8 q-20 -88 -37.5 -155t-32.5 -115l-207 -641h-192z" />
<glyph unicode="x" horiz-adv-x="1073" d="M39 0l401 561l-381 535h189l289 -420l288 420h187l-381 -535l401 -561h-188l-307 444l-310 -444h-188z" />
<glyph unicode="y" horiz-adv-x="1032" d="M2 1096h178l240 -625q42 -107 65 -184t33 -125h8q13 51 54 174q21 63 89 251.5t183 508.5h178l-471 -1247q-69 -183 -164 -262q-95 -78 -229 -78q-74 0 -150 17v133q55 -12 123 -12q169 0 244 192l61 156z" />
<glyph unicode="z" horiz-adv-x="958" d="M82 0v113l598 854h-561v129h743v-129l-590 -838h605v-129h-795z" />
<glyph unicode="{" horiz-adv-x="776" d="M61 498v141q130 2 188 48t58 142v306q0 155 108 241q109 86 290 86v-139q-230 -6 -230 -199v-295q0 -215 -223 -254v-12q223 -39 223 -254v-297q0 -101 58.5 -147t171.5 -48v-140q-95 1 -169 23.5t-125 64t-77.5 101t-26.5 136.5v303q0 104 -63 148.5t-183 44.5z" />
<glyph unicode="|" horiz-adv-x="1128" d="M494 -495v2051h141v-2051h-141z" />
<glyph unicode="}" horiz-adv-x="776" d="M72 -183q111 2 169 48t58 147v297q0 114 55 174t168 80v12q-223 39 -223 254v295q0 193 -227 199v139q184 0 289 -87q106 -87 106 -240v-306q0 -97 59 -142.5t189 -47.5v-141q-122 0 -185 -44.5t-63 -148.5v-303q0 -153 -102 -238t-293 -87v140z" />
<glyph unicode="~" horiz-adv-x="1171" d="M104 592v151q100 109 244 109q66 0 124 -14q29 -7 65 -20t81 -32q66 -28 115 -41.5t96 -13.5q54 0 118 32t118 89v-150q-102 -110 -244 -110q-72 0 -135 16.5t-135 48.5q-38 17 -67.5 27.5t-52.5 16.5q-45 12 -93 12q-27 0 -56.5 -9t-60 -24.5t-60.5 -38t-57 -49.5z" />
<glyph unicode="&#xa0;" />
<glyph unicode="&#xa1;" />
<glyph unicode="&#xa2;" />
<glyph unicode="&#xa3;" />
<glyph unicode="&#xa4;" />
<glyph unicode="&#xa5;" />
<glyph unicode="&#xa6;" />
<glyph unicode="&#xa7;" />
<glyph unicode="&#xa8;" horiz-adv-x="1182" d="M309 1393q0 52 26.5 75t63.5 23q38 0 65.5 -23t27.5 -75q0 -51 -27.5 -75t-65.5 -24q-37 0 -63.5 24t-26.5 75zM690 1393q0 52 26.5 75t63.5 23t64.5 -23t27.5 -75q0 -51 -27.5 -75t-64.5 -24t-63.5 24t-26.5 75z" />
<glyph unicode="&#xa9;" horiz-adv-x="1704" d="M100 731q0 200 100 375q101 176 275 276q176 101 377 101q200 0 375 -100q176 -101 276 -275q101 -176 101 -377q0 -198 -97 -370q-49 -87 -116.5 -156t-155.5 -121q-175 -103 -383 -103q-104 0 -199 25t-183 77q-175 103 -273 277q-97 172 -97 371zM205 731 q0 -173 87 -324q88 -152 237 -237q150 -86 323 -86q174 0 323 87q150 88 236 235q88 148 88 325q0 174 -87 323t-236 236q-148 88 -324 88q-175 0 -323 -87t-237 -236q-87 -149 -87 -324zM481 731q0 208 110 332q111 123 302 123q127 0 246 -60l-58 -118q-108 51 -188 51 q-63 0 -111.5 -22.5t-81.5 -64.5t-50 -103t-17 -138q0 -169 63 -249.5t195 -80.5q86 0 211 45v-124q-48 -20 -98.5 -34t-120.5 -14q-195 0 -298 120q-104 122 -104 337z" />
<glyph unicode="&#xaa;" />
<glyph unicode="&#xab;" horiz-adv-x="1018" d="M82 524v27l342 407l119 -69l-289 -350l289 -351l-119 -71zM477 524v27l344 407l117 -69l-287 -350l287 -351l-117 -71z" />
<glyph unicode="&#xac;" />
<glyph unicode="&#xad;" />
<glyph unicode="&#xae;" horiz-adv-x="1704" d="M100 731q0 200 100 375q101 176 275 276q176 101 377 101q200 0 375 -100q176 -101 276 -275q101 -176 101 -377q0 -198 -97 -370q-49 -87 -116.5 -156t-155.5 -121q-175 -103 -383 -103q-104 0 -199 25t-183 77q-175 103 -273 277q-97 172 -97 371zM205 731 q0 -173 87 -324q88 -152 237 -237q150 -86 323 -86q174 0 323 87q150 88 236 235q88 148 88 325q0 174 -87 323t-236 236q-148 88 -324 88q-175 0 -323 -87t-237 -236q-87 -149 -87 -324zM575 285v891h261q166 0 243.5 -65t77.5 -198q0 -81 -42 -142t-120 -91l238 -395h-168 l-207 354h-135v-354h-148zM723 762h108q79 0 128 41q49 42 49 106q0 75 -42.5 107.5t-136.5 32.5h-106v-287z" />
<glyph unicode="&#xaf;" />
<glyph unicode="&#xb0;" horiz-adv-x="877" d="M127 1171q0 129 90 221q91 91 221 91t221 -91q91 -90 91 -221q0 -83 -41 -156q-41 -71 -114 -113q-74 -42 -157 -42q-130 0 -221 90q-90 90 -90 221zM242 1171q0 -82 58 -139t140 -57q79 0 137 56q58 57 58 140t-57 140t-138 57q-83 0 -141 -57q-57 -57 -57 -140z" />
<glyph unicode="&#xb1;" horiz-adv-x="1171" d="M104 653v138h410v428h139v-428h412v-138h-412v-426h-139v426h-410z" />
<glyph unicode="&#xb2;" horiz-adv-x="711" d="M49 586v104l236 230q45 43 77.5 76.5t52.5 57.5q40 49 57 87q17 39 17 92q0 69 -40 103t-103 34q-53 0 -101 -19t-118 -69l-66 88q130 111 283 111q66 0 118 -17t87.5 -48.5t54.5 -76t19 -100.5q0 -80 -45 -156q-43 -74 -191 -213l-174 -165h440v-119h-604z" />
<glyph unicode="&#xb3;" horiz-adv-x="711" d="M33 625v123q148 -68 270 -68q211 0 211 162q0 145 -231 145h-117v107h119q103 0 152.5 39t49.5 108q0 61 -40 95t-107 34q-66 0 -121.5 -21.5t-112.5 -56.5l-69 90q63 45 133 72t164 27q68 0 122 -15t92 -44t58.5 -71t20.5 -96q0 -81 -40.5 -132t-109.5 -74 q176 -47 176 -209q0 -129 -91.5 -200t-260.5 -71q-151 0 -268 56z" />
<glyph unicode="&#xb4;" horiz-adv-x="1182" d="M393 1241v25q24 31 49.5 68t53.5 82t50 83t38 70h202v-21q-45 -66 -131 -160q-88 -96 -151 -147h-111z" />
<glyph unicode="&#xb5;" />
<glyph unicode="&#xb6;" />
<glyph unicode="&#xb7;" horiz-adv-x="545" d="M152 723q0 66 30.5 100.5t87.5 34.5q58 0 90.5 -34.5t32.5 -100.5t-33 -100.5t-90 -34.5q-51 0 -84.5 31.5t-33.5 103.5z" />
<glyph unicode="&#xb8;" />
<glyph unicode="&#xb9;" horiz-adv-x="711" d="M76 1280l262 182h143v-876h-133v579q0 91 6 181q-11 -11 -23 -22.5t-26 -22.5q-27 -23 -162 -117z" />
<glyph unicode="&#xba;" horiz-adv-x="768" d="M66 1135q0 81 21.5 145t62.5 108.5t100.5 67.5t134.5 23q76 0 135 -23.5t99.5 -67.5t61.5 -108t21 -145q0 -164 -86 -256q-85 -91 -235 -91q-146 0 -231 93q-84 93 -84 254zM188 1135q0 -122 45.5 -183t149.5 -61q105 0 151 61t46 183q0 123 -46 182t-151 59 q-103 0 -149 -58.5t-46 -182.5z" />
<glyph unicode="&#xbb;" horiz-adv-x="1018" d="M80 188l287 351l-287 350l117 69l344 -407v-27l-344 -407zM475 188l287 351l-287 350l117 69l344 -407v-27l-344 -407z" />
<glyph unicode="&#xbc;" horiz-adv-x="1597" d="M76 1280l262 182h143v-876h-133v579q0 91 6 181q-11 -11 -23 -22.5t-26 -22.5q-27 -23 -162 -117zM817 205v101l408 579h139v-563h125v-117h-125v-202h-145v202h-402zM957 322h262v195q0 134 6 209q-5 -12 -17 -32t-26.5 -42.5t-30 -45t-26.5 -38.5z" />
<glyph unicode="&#xbd;" horiz-adv-x="1597" d="M48 1280l262 182h143v-876h-133v579q0 91 6 181q-11 -11 -23 -22.5t-26 -22.5q-27 -23 -162 -117zM895 3v104l236 230q45 43 77.5 76.5t52.5 57.5q40 49 57 87q17 39 17 92q0 69 -40 103t-103 34q-53 0 -101 -19t-118 -69l-66 88q130 111 283 111q66 0 118 -17 t87.5 -48.5t54.5 -76t19 -100.5q0 -80 -45 -156q-43 -74 -191 -213l-174 -165h440v-119h-604z" />
<glyph unicode="&#xbe;" horiz-adv-x="1597" d="M28 625v123q148 -68 270 -68q211 0 211 162q0 145 -231 145h-117v107h119q103 0 152.5 39t49.5 108q0 61 -40 95t-107 34q-66 0 -121.5 -21.5t-112.5 -56.5l-69 90q63 45 133 72t164 27q68 0 122 -15t92 -44t58.5 -71t20.5 -96q0 -81 -40.5 -132t-109.5 -74 q176 -47 176 -209q0 -129 -91.5 -200t-260.5 -71q-151 0 -268 56zM897 205v101l408 579h139v-563h125v-117h-125v-202h-145v202h-402zM1037 322h262v195q0 134 6 209q-5 -12 -17 -32t-26.5 -42.5t-30 -45t-26.5 -38.5z" />
<glyph unicode="&#xbf;" horiz-adv-x="879" d="M51 -36q0 70 17.5 122.5t49.5 96.5t76.5 85t98.5 88q51 45 84 81t49 65q33 58 33 151v31h131v-51q0 -122 -38 -196q-19 -37 -52 -76.5t-82 -81.5q-61 -54 -98.5 -89.5t-53.5 -54.5q-30 -37 -42.5 -75t-12.5 -94q0 -100 65.5 -156.5t188.5 -56.5q82 0 155 19 q38 10 81 26.5t92 40.5l59 -135q-197 -96 -395 -96q-190 0 -298 93t-108 263zM397 983q0 64 33 99.5t88 35.5q51 0 86 -32t35 -103q0 -135 -121 -135q-60 0 -90.5 34.5t-30.5 100.5z" />
<glyph unicode="&#xc0;" horiz-adv-x="1296" d="M0 0l578 1468h143l575 -1468h-176l-182 465h-586l-180 -465h-172zM333 1886v21h203q16 -35 38 -74.5t51 -85.5q57 -90 101 -143v-25h-110q-32 26 -70.5 63t-83.5 85q-89 96 -129 159zM412 618h473l-170 453q-16 43 -33.5 95.5t-34.5 115.5q-11 -48 -26 -101t-37 -110z " />
<glyph unicode="&#xc1;" horiz-adv-x="1296" d="M0 0l578 1468h143l575 -1468h-176l-182 465h-586l-180 -465h-172zM412 618h473l-170 453q-16 43 -33.5 95.5t-34.5 115.5q-11 -48 -26 -101t-37 -110zM526 1579v25q24 31 49.5 68t53.5 82t50 83t38 70h202v-21q-45 -66 -131 -160q-88 -96 -151 -147h-111z" />
<glyph unicode="&#xc2;" horiz-adv-x="1296" d="M0 0l578 1468h143l575 -1468h-176l-182 465h-586l-180 -465h-172zM412 618h473l-170 453q-16 43 -33.5 95.5t-34.5 115.5q-11 -48 -26 -101t-37 -110z" />
<glyph unicode="&#xc3;" horiz-adv-x="1296" d="M0 0l578 1468h143l575 -1468h-176l-182 465h-586l-180 -465h-172zM412 618h473l-170 453q-16 43 -33.5 95.5t-34.5 115.5q-11 -48 -26 -101t-37 -110z" />
<glyph unicode="&#xc4;" horiz-adv-x="1296" d="M0 0l578 1468h143l575 -1468h-176l-182 465h-586l-180 -465h-172zM364 1731q0 52 26.5 75t63.5 23q38 0 65.5 -23t27.5 -75q0 -51 -27.5 -75t-65.5 -24q-37 0 -63.5 24t-26.5 75zM412 618h473l-170 453q-16 43 -33.5 95.5t-34.5 115.5q-11 -48 -26 -101t-37 -110z M745 1731q0 52 26.5 75t63.5 23t64.5 -23t27.5 -75q0 -51 -27.5 -75t-64.5 -24t-63.5 24t-26.5 75z" />
<glyph unicode="&#xc5;" horiz-adv-x="1296" d="M0 0l578 1468h143l575 -1468h-176l-182 465h-586l-180 -465h-172zM412 618h473l-170 453q-16 43 -33.5 95.5t-34.5 115.5q-11 -48 -26 -101t-37 -110z" />
<glyph unicode="&#xc6;" horiz-adv-x="1788" d="M-1 0l697 1462h969v-151h-580v-471h541v-150h-541v-538h580v-152h-750v465h-514l-227 -465h-175zM469 618h446v693h-118z" />
<glyph unicode="&#xc7;" horiz-adv-x="1292" d="M125 733q-1 169 48 308t141 237.5t222.5 152t292.5 52.5q115 -1 215 -21.5t187 -62.5l-72 -146q-167 78 -332 78q-241 0 -381 -161q-139 -160 -139 -439q0 -288 134 -444q133 -156 384 -156q154 0 349 55v-149q-153 -56 -375 -56q-325 0 -499 195q-88 99 -130.5 237 t-44.5 320z" />
<glyph unicode="&#xc8;" horiz-adv-x="1139" d="M201 0v1462h815v-151h-645v-471h606v-150h-606v-538h645v-152h-815zM322 1886v21h203q16 -35 38 -74.5t51 -85.5q57 -90 101 -143v-25h-110q-32 26 -70.5 63t-83.5 85q-89 96 -129 159z" />
<glyph unicode="&#xc9;" horiz-adv-x="1139" d="M201 0v1462h815v-151h-645v-471h606v-150h-606v-538h645v-152h-815zM456 1579v25q24 31 49.5 68t53.5 82t50 83t38 70h202v-21q-45 -66 -131 -160q-88 -96 -151 -147h-111z" />
<glyph unicode="&#xca;" horiz-adv-x="1139" d="M201 0v1462h815v-151h-645v-471h606v-150h-606v-538h645v-152h-815z" />
<glyph unicode="&#xcb;" />
<glyph unicode="&#xcc;" horiz-adv-x="571" d="M7 1886v21h203q16 -35 38 -74.5t51 -85.5q57 -90 101 -143v-25h-110q-32 26 -70.5 63t-83.5 85q-89 96 -129 159zM201 0v1462h170v-1462h-170z" />
<glyph unicode="&#xcd;" horiz-adv-x="571" d="M181 1579v25q24 31 49.5 68t53.5 82t50 83t38 70h202v-21q-45 -66 -131 -160q-88 -96 -151 -147h-111zM201 0v1462h170v-1462h-170z" />
<glyph unicode="&#xce;" horiz-adv-x="571" d="M201 0v1462h170v-1462h-170z" />
<glyph unicode="&#xcf;" />
<glyph unicode="&#xd0;" />
<glyph unicode="&#xd1;" horiz-adv-x="1544" d="M201 0v1462h192l797 -1222h8l-9 173q-4 74 -4.5 126t-0.5 84v839h159v-1462h-194l-799 1227h-8q8 -109 12 -207t4 -189v-831h-157z" />
<glyph unicode="&#xd2;" horiz-adv-x="1595" d="M125 735q0 356 176 553t500 197q315 0 492 -200t177 -552t-178 -552q-176 -200 -493 -200q-324 0 -499 196q-175 197 -175 558zM305 733q0 -299 126 -451.5t368 -152.5q244 0 367.5 152t123.5 452q0 295 -123.5 447.5t-365.5 152.5q-244 0 -370 -152.5t-126 -447.5z M514 1886v21h203q16 -35 38 -74.5t51 -85.5q57 -90 101 -143v-25h-110q-32 26 -70.5 63t-83.5 85q-89 96 -129 159z" />
<glyph unicode="&#xd3;" horiz-adv-x="1595" d="M125 735q0 356 176 553t500 197q315 0 492 -200t177 -552t-178 -552q-176 -200 -493 -200q-324 0 -499 196q-175 197 -175 558zM305 733q0 -299 126 -451.5t368 -152.5q244 0 367.5 152t123.5 452q0 295 -123.5 447.5t-365.5 152.5q-244 0 -370 -152.5t-126 -447.5z M659 1579v25q24 31 49.5 68t53.5 82t50 83t38 70h202v-21q-45 -66 -131 -160q-88 -96 -151 -147h-111z" />
<glyph unicode="&#xd4;" horiz-adv-x="1595" d="M125 735q0 356 176 553t500 197q315 0 492 -200t177 -552t-178 -552q-176 -200 -493 -200q-324 0 -499 196q-175 197 -175 558zM305 733q0 -299 126 -451.5t368 -152.5q244 0 367.5 152t123.5 452q0 295 -123.5 447.5t-365.5 152.5q-244 0 -370 -152.5t-126 -447.5z" />
<glyph unicode="&#xd5;" horiz-adv-x="1595" d="M125 735q0 356 176 553t500 197q315 0 492 -200t177 -552t-178 -552q-176 -200 -493 -200q-324 0 -499 196q-175 197 -175 558zM305 733q0 -299 126 -451.5t368 -152.5q244 0 367.5 152t123.5 452q0 295 -123.5 447.5t-365.5 152.5q-244 0 -370 -152.5t-126 -447.5z" />
<glyph unicode="&#xd6;" horiz-adv-x="1595" d="M125 735q0 356 176 553t500 197q315 0 492 -200t177 -552t-178 -552q-176 -200 -493 -200q-324 0 -499 196q-175 197 -175 558zM305 733q0 -299 126 -451.5t368 -152.5q244 0 367.5 152t123.5 452q0 295 -123.5 447.5t-365.5 152.5q-244 0 -370 -152.5t-126 -447.5z M522 1731q0 52 26.5 75t63.5 23q38 0 65.5 -23t27.5 -75q0 -51 -27.5 -75t-65.5 -24q-37 0 -63.5 24t-26.5 75zM903 1731q0 52 26.5 75t63.5 23t64.5 -23t27.5 -75q0 -51 -27.5 -75t-64.5 -24t-63.5 24t-26.5 75z" />
<glyph unicode="&#xd7;" />
<glyph unicode="&#xd8;" />
<glyph unicode="&#xd9;" />
<glyph unicode="&#xda;" />
<glyph unicode="&#xdb;" />
<glyph unicode="&#xdc;" horiz-adv-x="1491" d="M186 520v942h170v-954q0 -184 99.5 -281.5t294.5 -97.5q186 0 285.5 98t99.5 283v952h170v-946q0 -251 -151 -393t-415 -142q-265 0 -409 143q-144 144 -144 396zM461 1731q0 52 26.5 75t63.5 23q38 0 65.5 -23t27.5 -75q0 -51 -27.5 -75t-65.5 -24q-37 0 -63.5 24 t-26.5 75zM842 1731q0 52 26.5 75t63.5 23t64.5 -23t27.5 -75q0 -51 -27.5 -75t-64.5 -24t-63.5 24t-26.5 75z" />
<glyph unicode="&#xdd;" />
<glyph unicode="&#xde;" />
<glyph unicode="&#xdf;" horiz-adv-x="1274" d="M176 0v1202q0 179 109.5 272t332.5 93q103 0 183.5 -20t135.5 -58.5t83.5 -94.5t28.5 -128q0 -134 -143 -250q-88 -70 -116 -104q-29 -34 -28 -66q1 -25 7 -41.5t24 -34.5t52.5 -42t92.5 -64q140 -95 191 -174q51 -78 51 -179q0 -161 -96.5 -245.5t-276.5 -84.5 q-190 0 -295 68v154q63 -39 141 -62.5t150 -23.5q215 0 215 182q0 74 -42 128t-151 124q-128 83 -175 143q-48 61 -48 146q0 63 34.5 116t105.5 106q37 28 63.5 53t43.5 49t24.5 47.5t7.5 50.5q0 81 -67.5 123t-195.5 42q-276 0 -276 -223v-1204h-166z" />
<glyph unicode="&#xe0;" horiz-adv-x="1139" d="M94 303q0 331 531 348l186 6v68q0 130 -55 191t-178 61q-138 0 -310 -84l-51 127q81 45 177.5 69.5t193.5 24.5q196 0 290.5 -87t94.5 -279v-748h-123l-33 156h-8q-82 -103 -164 -140q-82 -35 -203 -35q-164 0 -256 83q-92 84 -92 239zM268 301q0 -91 54 -137.5 t153 -46.5q155 0 243 85q89 86 89 238v99l-166 -7q-99 -4 -169.5 -19t-116 -43t-66.5 -70t-21 -99zM281 1548v21h203q16 -35 38 -74.5t51 -85.5q57 -90 101 -143v-25h-110q-32 26 -70.5 63t-83.5 85q-89 96 -129 159z" />
<glyph unicode="&#xe1;" horiz-adv-x="1139" d="M94 303q0 331 531 348l186 6v68q0 130 -55 191t-178 61q-138 0 -310 -84l-51 127q81 45 177.5 69.5t193.5 24.5q196 0 290.5 -87t94.5 -279v-748h-123l-33 156h-8q-82 -103 -164 -140q-82 -35 -203 -35q-164 0 -256 83q-92 84 -92 239zM268 301q0 -91 54 -137.5 t153 -46.5q155 0 243 85q89 86 89 238v99l-166 -7q-99 -4 -169.5 -19t-116 -43t-66.5 -70t-21 -99zM436 1241v25q24 31 49.5 68t53.5 82t50 83t38 70h202v-21q-45 -66 -131 -160q-88 -96 -151 -147h-111z" />
<glyph unicode="&#xe2;" horiz-adv-x="1139" d="M94 303q0 331 531 348l186 6v68q0 130 -55 191t-178 61q-138 0 -310 -84l-51 127q81 45 177.5 69.5t193.5 24.5q196 0 290.5 -87t94.5 -279v-748h-123l-33 156h-8q-82 -103 -164 -140q-82 -35 -203 -35q-164 0 -256 83q-92 84 -92 239zM268 301q0 -91 54 -137.5 t153 -46.5q155 0 243 85q89 86 89 238v99l-166 -7q-99 -4 -169.5 -19t-116 -43t-66.5 -70t-21 -99z" />
<glyph unicode="&#xe3;" horiz-adv-x="1139" d="M94 303q0 331 531 348l186 6v68q0 130 -55 191t-178 61q-138 0 -310 -84l-51 127q81 45 177.5 69.5t193.5 24.5q196 0 290.5 -87t94.5 -279v-748h-123l-33 156h-8q-82 -103 -164 -140q-82 -35 -203 -35q-164 0 -256 83q-92 84 -92 239zM268 301q0 -91 54 -137.5 t153 -46.5q155 0 243 85q89 86 89 238v99l-166 -7q-99 -4 -169.5 -19t-116 -43t-66.5 -70t-21 -99z" />
<glyph unicode="&#xe4;" horiz-adv-x="1139" d="M94 303q0 331 531 348l186 6v68q0 130 -55 191t-178 61q-138 0 -310 -84l-51 127q81 45 177.5 69.5t193.5 24.5q196 0 290.5 -87t94.5 -279v-748h-123l-33 156h-8q-82 -103 -164 -140q-82 -35 -203 -35q-164 0 -256 83q-92 84 -92 239zM268 301q0 -91 54 -137.5 t153 -46.5q155 0 243 85q89 86 89 238v99l-166 -7q-99 -4 -169.5 -19t-116 -43t-66.5 -70t-21 -99zM281 1393q0 52 26.5 75t63.5 23q38 0 65.5 -23t27.5 -75q0 -51 -27.5 -75t-65.5 -24q-37 0 -63.5 24t-26.5 75zM662 1393q0 52 26.5 75t63.5 23t64.5 -23t27.5 -75 q0 -51 -27.5 -75t-64.5 -24t-63.5 24t-26.5 75z" />
<glyph unicode="&#xe5;" horiz-adv-x="1139" d="M94 303q0 331 531 348l186 6v68q0 130 -55 191t-178 61q-138 0 -310 -84l-51 127q81 45 177.5 69.5t193.5 24.5q196 0 290.5 -87t94.5 -279v-748h-123l-33 156h-8q-82 -103 -164 -140q-82 -35 -203 -35q-164 0 -256 83q-92 84 -92 239zM268 301q0 -91 54 -137.5 t153 -46.5q155 0 243 85q89 86 89 238v99l-166 -7q-99 -4 -169.5 -19t-116 -43t-66.5 -70t-21 -99z" />
<glyph unicode="&#xe6;" horiz-adv-x="1757" d="M94 303q0 161 124 250.5t378 97.5l184 6v68q0 130 -57.5 191t-177.5 61q-144 0 -307 -84l-52 127q37 20 80 37t93 30q100 27 198 27q131 0 212.5 -43t123.5 -139q54 88 138.5 136t195.5 48q192 0 308 -134t116 -355v-107h-701q8 -395 322 -395q91 0 169.5 17.5 t162.5 56.5v-148q-87 -38 -161 -53q-76 -17 -175 -17q-290 0 -414 232q-81 -128 -180 -180t-232 -52q-165 0 -256 84q-92 86 -92 238zM268 301q0 -95 53.5 -139.5t141.5 -44.5q72 0 130 21.5t98.5 63t62.5 101.5t22 137v99l-158 -7q-93 -4 -159.5 -19.5t-108.5 -43.5 t-62 -69.5t-20 -98.5zM954 653h519q0 157 -63.5 240.5t-184.5 83.5t-190.5 -82.5t-80.5 -241.5z" />
<glyph unicode="&#xe7;" horiz-adv-x="975" d="M115 541q0 275 132 425q133 150 378 150q40 0 79 -4.5t79 -12.5t70.5 -18.5t53.5 -21.5l-51 -141q-56 22 -120 36q-65 15 -115 15q-334 0 -334 -426q0 -202 81.5 -310t241.5 -108q136 0 281 59v-147q-110 -56 -277 -56q-239 0 -369 145q-130 146 -130 415z" />
<glyph unicode="&#xe8;" horiz-adv-x="1149" d="M115 539q0 266 130 421q130 156 351 156q206 0 326 -136q120 -135 120 -357v-105h-755q5 -194 97 -293.5t261 -99.5q176 0 350 74v-148q-45 -19 -86 -32t-81 -21q-80 -17 -189 -17q-244 0 -384 147q-140 149 -140 411zM291 653h573q0 158 -69.5 241t-200.5 83 q-66 0 -119 -22t-91.5 -64t-62 -102t-30.5 -136zM320 1548v21h203q16 -35 38 -74.5t51 -85.5q57 -90 101 -143v-25h-110q-32 26 -70.5 63t-83.5 85q-89 96 -129 159z" />
<glyph unicode="&#xe9;" horiz-adv-x="1149" d="M115 539q0 266 130 421q130 156 351 156q206 0 326 -136q120 -135 120 -357v-105h-755q5 -194 97 -293.5t261 -99.5q176 0 350 74v-148q-45 -19 -86 -32t-81 -21q-80 -17 -189 -17q-244 0 -384 147q-140 149 -140 411zM291 653h573q0 158 -69.5 241t-200.5 83 q-66 0 -119 -22t-91.5 -64t-62 -102t-30.5 -136zM471 1241v25q24 31 49.5 68t53.5 82t50 83t38 70h202v-21q-45 -66 -131 -160q-88 -96 -151 -147h-111z" />
<glyph unicode="&#xea;" horiz-adv-x="1149" d="M115 539q0 266 130 421q130 156 351 156q206 0 326 -136q120 -135 120 -357v-105h-755q5 -194 97 -293.5t261 -99.5q176 0 350 74v-148q-45 -19 -86 -32t-81 -21q-80 -17 -189 -17q-244 0 -384 147q-140 149 -140 411zM291 653h573q0 158 -69.5 241t-200.5 83 q-66 0 -119 -22t-91.5 -64t-62 -102t-30.5 -136z" />
<glyph unicode="&#xeb;" horiz-adv-x="1149" d="M115 539q0 266 130 421q130 156 351 156q206 0 326 -136q120 -135 120 -357v-105h-755q5 -194 97 -293.5t261 -99.5q176 0 350 74v-148q-45 -19 -86 -32t-81 -21q-80 -17 -189 -17q-244 0 -384 147q-140 149 -140 411zM291 653h573q0 158 -69.5 241t-200.5 83 q-66 0 -119 -22t-91.5 -64t-62 -102t-30.5 -136zM319 1393q0 52 26.5 75t63.5 23q38 0 65.5 -23t27.5 -75q0 -51 -27.5 -75t-65.5 -24q-37 0 -63.5 24t-26.5 75zM700 1393q0 52 26.5 75t63.5 23t64.5 -23t27.5 -75q0 -51 -27.5 -75t-64.5 -24t-63.5 24t-26.5 75z" />
<glyph unicode="&#xec;" horiz-adv-x="518" d="M-36 1548v21h203q16 -35 38 -74.5t51 -85.5q57 -90 101 -143v-25h-110q-32 26 -70.5 63t-83.5 85q-89 96 -129 159z" />
<glyph unicode="&#xed;" horiz-adv-x="518" d="M171 1241v25q24 31 49.5 68t53.5 82t50 83t38 70h202v-21q-45 -66 -131 -160q-88 -96 -151 -147h-111z" />
<glyph unicode="&#xee;" horiz-adv-x="518" />
<glyph unicode="&#xef;" />
<glyph unicode="&#xf0;" />
<glyph unicode="&#xf1;" horiz-adv-x="1257" d="M176 0v1096h135l27 -150h8q25 40 61.5 72t81.5 53.5t96.5 33t108.5 11.5q198 0 298 -95.5t100 -305.5v-715h-166v709q0 135 -60.5 200.5t-191.5 65.5q-173 0 -252 -93q-80 -94 -80 -307v-575h-166z" />
<glyph unicode="&#xf2;" horiz-adv-x="1237" d="M115 549q2 135 34.5 238.5t99.5 178.5q133 150 372 150q230 0 365 -153q136 -152 136 -414q0 -268 -135 -419q-68 -75 -160.5 -111.5t-212.5 -37.5q-110 -1 -202.5 39t-158.5 114t-102.5 179.5t-35.5 235.5zM287 549q0 -211 83.5 -320.5t247.5 -109.5t248 109t84 321 q0 211 -84 318.5t-250 107.5q-164 0 -246.5 -106t-82.5 -320zM351 1548v21h203q16 -35 38 -74.5t51 -85.5q57 -90 101 -143v-25h-110q-32 26 -70.5 63t-83.5 85q-89 96 -129 159z" />
<glyph unicode="&#xf3;" horiz-adv-x="1237" d="M115 549q2 135 34.5 238.5t99.5 178.5q133 150 372 150q230 0 365 -153q136 -152 136 -414q0 -268 -135 -419q-68 -75 -160.5 -111.5t-212.5 -37.5q-110 -1 -202.5 39t-158.5 114t-102.5 179.5t-35.5 235.5zM287 549q0 -211 83.5 -320.5t247.5 -109.5t248 109t84 321 q0 211 -84 318.5t-250 107.5q-164 0 -246.5 -106t-82.5 -320zM479 1241v25q24 31 49.5 68t53.5 82t50 83t38 70h202v-21q-45 -66 -131 -160q-88 -96 -151 -147h-111z" />
<glyph unicode="&#xf4;" horiz-adv-x="1237" d="M115 549q2 135 34.5 238.5t99.5 178.5q133 150 372 150q230 0 365 -153q136 -152 136 -414q0 -268 -135 -419q-68 -75 -160.5 -111.5t-212.5 -37.5q-110 -1 -202.5 39t-158.5 114t-102.5 179.5t-35.5 235.5zM287 549q0 -211 83.5 -320.5t247.5 -109.5t248 109t84 321 q0 211 -84 318.5t-250 107.5q-164 0 -246.5 -106t-82.5 -320z" />
<glyph unicode="&#xf5;" horiz-adv-x="1237" d="M115 549q2 135 34.5 238.5t99.5 178.5q133 150 372 150q230 0 365 -153q136 -152 136 -414q0 -268 -135 -419q-68 -75 -160.5 -111.5t-212.5 -37.5q-110 -1 -202.5 39t-158.5 114t-102.5 179.5t-35.5 235.5zM287 549q0 -211 83.5 -320.5t247.5 -109.5t248 109t84 321 q0 211 -84 318.5t-250 107.5q-164 0 -246.5 -106t-82.5 -320z" />
<glyph unicode="&#xf6;" horiz-adv-x="1237" d="M115 549q2 135 34.5 238.5t99.5 178.5q133 150 372 150q230 0 365 -153q136 -152 136 -414q0 -268 -135 -419q-68 -75 -160.5 -111.5t-212.5 -37.5q-110 -1 -202.5 39t-158.5 114t-102.5 179.5t-35.5 235.5zM287 549q0 -211 83.5 -320.5t247.5 -109.5t248 109t84 321 q0 211 -84 318.5t-250 107.5q-164 0 -246.5 -106t-82.5 -320zM336 1393q0 52 26.5 75t63.5 23q38 0 65.5 -23t27.5 -75q0 -51 -27.5 -75t-65.5 -24q-37 0 -63.5 24t-26.5 75zM717 1393q0 52 26.5 75t63.5 23t64.5 -23t27.5 -75q0 -51 -27.5 -75t-64.5 -24t-63.5 24t-26.5 75 z" />
<glyph unicode="&#xf7;" horiz-adv-x="1171" d="M104 653v138h961v-138h-961zM471 373q0 60 29.5 90.5t83.5 30.5q52 0 81 -31.5t29 -89.5q0 -57 -29.5 -89t-80.5 -32q-52 0 -82.5 31.5t-30.5 89.5zM471 1071q0 60 29.5 90.5t83.5 30.5q52 0 81 -31.5t29 -89.5q0 -57 -29.5 -89t-80.5 -32q-52 0 -82.5 31.5t-30.5 89.5z " />
<glyph unicode="&#xf8;" horiz-adv-x="1237" d="M115 549q0 268 134 417q133 150 372 150q155 0 270 -76l84 119l117 -76l-97 -133q127 -151 127 -401q0 -268 -135 -419q-134 -149 -373 -149q-155 0 -266 68l-84 -116l-114 77l94 131q-129 151 -129 408zM287 549q0 -170 53 -273l465 646q-76 53 -189 53 q-164 0 -246.5 -106t-82.5 -320zM434 170q70 -51 184 -51q164 0 248 109t84 321q0 163 -51 264z" />
<glyph unicode="&#xf9;" horiz-adv-x="1257" d="M164 379v717h168v-711q0 -135 60.5 -200.5t191.5 -65.5q172 0 251 94q80 95 80 307v576h166v-1096h-137l-24 147h-9q-51 -81 -141 -123.5t-207 -42.5q-200 0 -299.5 94.5t-99.5 303.5zM335 1548v21h203q16 -35 38 -74.5t51 -85.5q57 -90 101 -143v-25h-110 q-32 26 -70.5 63t-83.5 85q-89 96 -129 159z" />
<glyph unicode="&#xfa;" horiz-adv-x="1257" d="M164 379v717h168v-711q0 -135 60.5 -200.5t191.5 -65.5q172 0 251 94q80 95 80 307v576h166v-1096h-137l-24 147h-9q-51 -81 -141 -123.5t-207 -42.5q-200 0 -299.5 94.5t-99.5 303.5zM506 1241v25q24 31 49.5 68t53.5 82t50 83t38 70h202v-21q-45 -66 -131 -160 q-88 -96 -151 -147h-111z" />
<glyph unicode="&#xfb;" horiz-adv-x="1257" d="M164 379v717h168v-711q0 -135 60.5 -200.5t191.5 -65.5q172 0 251 94q80 95 80 307v576h166v-1096h-137l-24 147h-9q-51 -81 -141 -123.5t-207 -42.5q-200 0 -299.5 94.5t-99.5 303.5z" />
<glyph unicode="&#xfc;" horiz-adv-x="1257" d="M164 379v717h168v-711q0 -135 60.5 -200.5t191.5 -65.5q172 0 251 94q80 95 80 307v576h166v-1096h-137l-24 147h-9q-51 -81 -141 -123.5t-207 -42.5q-200 0 -299.5 94.5t-99.5 303.5zM342 1393q0 52 26.5 75t63.5 23q38 0 65.5 -23t27.5 -75q0 -51 -27.5 -75t-65.5 -24 q-37 0 -63.5 24t-26.5 75zM723 1393q0 52 26.5 75t63.5 23t64.5 -23t27.5 -75q0 -51 -27.5 -75t-64.5 -24t-63.5 24t-26.5 75z" />
<glyph unicode="&#xfd;" horiz-adv-x="1032" d="M2 1096h178l240 -625q42 -107 65 -184t33 -125h8q13 51 54 174q21 63 89 251.5t183 508.5h178l-471 -1247q-69 -183 -164 -262q-95 -78 -229 -78q-74 0 -150 17v133q55 -12 123 -12q169 0 244 192l61 156zM411 1241v25q24 31 49.5 68t53.5 82t50 83t38 70h202v-21 q-45 -66 -131 -160q-88 -96 -151 -147h-111z" />
<glyph unicode="&#xfe;" horiz-adv-x="1255" d="M176 -491v2047h166v-466q0 -52 -6 -142h8q66 90 151 129t191 39q215 0 335 -150t120 -417q0 -268 -121 -419q-119 -149 -334 -149q-223 0 -344 160h-12l4 -34q5 -38 6.5 -73t1.5 -66v-459h-166zM342 549q0 -230 77 -331q76 -99 247 -99q303 0 303 432q0 215 -74 319.5 t-231 104.5q-168 0 -245 -92t-77 -293v-41z" />
<glyph unicode="&#xff;" horiz-adv-x="1032" d="M2 1096h178l240 -625q42 -107 65 -184t33 -125h8q13 51 54 174q21 63 89 251.5t183 508.5h178l-471 -1247q-69 -183 -164 -262q-95 -78 -229 -78q-74 0 -150 17v133q55 -12 123 -12q169 0 244 192l61 156zM236 1393q0 52 26.5 75t63.5 23q38 0 65.5 -23t27.5 -75 q0 -51 -27.5 -75t-65.5 -24q-37 0 -63.5 24t-26.5 75zM617 1393q0 52 26.5 75t63.5 23t64.5 -23t27.5 -75q0 -51 -27.5 -75t-64.5 -24t-63.5 24t-26.5 75z" />
<glyph unicode="&#x152;" />
<glyph unicode="&#x153;" />
<glyph unicode="&#x178;" />
<glyph unicode="&#x2c6;" />
<glyph unicode="&#x2dc;" />
<glyph unicode="&#x2000;" horiz-adv-x="953" />
<glyph unicode="&#x2001;" horiz-adv-x="1907" />
<glyph unicode="&#x2002;" horiz-adv-x="953" />
<glyph unicode="&#x2003;" horiz-adv-x="1907" />
<glyph unicode="&#x2004;" horiz-adv-x="635" />
<glyph unicode="&#x2005;" horiz-adv-x="476" />
<glyph unicode="&#x2006;" horiz-adv-x="317" />
<glyph unicode="&#x2007;" horiz-adv-x="317" />
<glyph unicode="&#x2008;" horiz-adv-x="238" />
<glyph unicode="&#x2009;" horiz-adv-x="381" />
<glyph unicode="&#x200a;" horiz-adv-x="105" />
<glyph unicode="&#x2010;" horiz-adv-x="659" d="M84 473v152h491v-152h-491z" />
<glyph unicode="&#x2011;" horiz-adv-x="659" d="M84 473v152h491v-152h-491z" />
<glyph unicode="&#x2012;" horiz-adv-x="659" d="M84 473v152h491v-152h-491z" />
<glyph unicode="&#x2013;" horiz-adv-x="1024" d="M82 473v152h860v-152h-860z" />
<glyph unicode="&#x2014;" d="M82 473v152h1884v-152h-1884z" />
<glyph unicode="&#x2018;" />
<glyph unicode="&#x2019;" />
<glyph unicode="&#x201a;" />
<glyph unicode="&#x201c;" horiz-adv-x="717" d="M25 983q11 45 28.5 101t42.5 123q49 133 105 255h123q-33 -128 -58.5 -252t-44.5 -249h-184zM391 983q28 108 72.5 227t105.5 252h123q-15 -58 -30 -122.5t-30 -137.5q-29 -145 -42 -241h-184z" />
<glyph unicode="&#x201d;" horiz-adv-x="717" d="M25 961q70 285 102 501h182l15 -22q-13 -51 -31.5 -108.5t-43.5 -124.5q-50 -132 -102 -246h-122zM391 961q13 51 27.5 113.5t31.5 140.5t28 139t18 108h182l14 -22q-12 -46 -30 -101.5t-42 -122.5t-50 -130.5t-54 -124.5h-125z" />
<glyph unicode="&#x201e;" />
<glyph unicode="&#x2022;" horiz-adv-x="770" d="M164 748q0 121 56 184t165 63q106 0 163.5 -61.5t57.5 -185.5q0 -120 -57.5 -184t-163.5 -64q-108 0 -164.5 65t-56.5 183z" />
<glyph unicode="&#x2026;" horiz-adv-x="1606" d="M152 106q0 67 30.5 101.5t87.5 34.5q58 0 90.5 -34.5t32.5 -101.5q0 -66 -33 -100t-90 -34q-51 0 -84.5 31t-33.5 103zM682 106q0 67 30.5 101.5t87.5 34.5q58 0 90.5 -34.5t32.5 -101.5q0 -66 -33 -100t-90 -34q-51 0 -84.5 31t-33.5 103zM1213 106q0 67 30.5 101.5 t87.5 34.5q58 0 90.5 -34.5t32.5 -101.5q0 -66 -33 -100t-90 -34q-51 0 -84.5 31t-33.5 103z" />
<glyph unicode="&#x202f;" horiz-adv-x="381" />
<glyph unicode="&#x2039;" />
<glyph unicode="&#x203a;" />
<glyph unicode="&#x205f;" horiz-adv-x="476" />
<glyph unicode="&#x20ac;" horiz-adv-x="1208" d="M63 506v129h152l-2 42v44l2 80h-152v129h164q39 261 185 407t383 146q202 0 366 -97l-71 -139q-167 86 -295 86q-319 0 -398 -403h510v-129h-524l-2 -57v-64l2 -45h463v-129h-447q37 -180 138.5 -278.5t271.5 -98.5q156 0 309 66v-150q-144 -64 -317 -64q-238 0 -382 133 t-190 392h-166z" />
<glyph unicode="&#x2122;" horiz-adv-x="1589" d="M37 1356v106h543v-106h-211v-615h-123v615h-209zM647 741v721h187l196 -559l203 559h180v-721h-127v420l6 137h-8l-211 -557h-104l-201 559h-8l6 -129v-430h-119z" />
<glyph unicode="&#xe000;" horiz-adv-x="1095" d="M0 0v1095h1095v-1095h-1095z" />
<glyph unicode="&#xfb01;" />
<glyph unicode="&#xfb02;" />
<glyph unicode="&#xfb03;" />
<glyph unicode="&#xfb04;" />
</font>
</defs>
</svg>
