<?xml version="1.0" standalone="no"?>
<!DOCTYPE svg PUBLIC "-//W3C//DTD SVG 1.1//EN" "http://www.w3.org/Graphics/SVG/1.1/DTD/svg11.dtd" >
<svg xmlns="http://www.w3.org/2000/svg" xmlns:xlink="http://www.w3.org/1999/xlink" version="1.1">
<metadata></metadata>
<defs>
<font id="vigaregular" horiz-adv-x="1112" >
<font-face units-per-em="2048" ascent="1638" descent="-410" />
<missing-glyph horiz-adv-x="475" />
<glyph horiz-adv-x="0" />
<glyph unicode="&#xd;" horiz-adv-x="0" />
<glyph horiz-adv-x="0" />
<glyph horiz-adv-x="0" />
<glyph unicode=" "  horiz-adv-x="475" />
<glyph unicode="&#x09;" horiz-adv-x="475" />
<glyph unicode="&#xa0;" horiz-adv-x="475" />
<glyph unicode="!" horiz-adv-x="710" d="M229 141q0 102 33 133q33 33 135 33t133 -33q33 -31 33 -133t-33 -135q-31 -31 -133 -31t-135 31q-33 33 -33 135zM229 1458h330l-61 -885q-4 -61 -36 -90.5t-69 -29.5t-68.5 30.5t-35.5 89.5z" />
<glyph unicode="&#x22;" horiz-adv-x="950" d="M139 1458h252l-20 -432h-211zM559 1458h252l-20 -432h-211z" />
<glyph unicode="#" horiz-adv-x="1415" d="M127 367v247h172l16 267h-139v247h156l20 342h285l-21 -342h256l21 342h285l-21 -342h141v-247h-157l-17 -267h125v-247h-139l-23 -367h-284l22 367h-256l-22 -367h-285l23 367h-158zM584 614h256l16 267h-256z" />
<glyph unicode="$" horiz-adv-x="1013" d="M45 463l258 12q0 -123 44 -178t136 -55t154.5 49t62.5 131q0 74 -33.5 119t-105.5 55l-190 25q-145 18 -227.5 122.5t-82.5 278.5t87.5 288.5t240.5 147.5v152h207v-148q166 -27 263 -136t97 -269l-256 -13q-16 102 -65 140q-47 39 -127 39q-76 0 -125 -56 q-47 -57 -47 -127t41 -111.5t100 -51.5l133 -25q80 -14 148.5 -48t118 -85t78 -122t28.5 -159q0 -178 -117 -291q-115 -115 -270 -147v-221h-207v221q-74 14 -137.5 49t-109.5 92.5t-71.5 137t-25.5 184.5z" />
<glyph unicode="%" horiz-adv-x="1736" d="M150 936v285q0 238 296 237h873l-690 -1458h-209l614 1298h-301q10 -41 10 -77v-285q0 -240 -297 -240t-296 240zM342 965q0 -55 25.5 -76t78.5 -21t79 20.5t26 76.5v227q0 55 -25.5 75.5t-79.5 20.5q-53 0 -78.5 -20.5t-25.5 -75.5v-227zM1040 227v285q0 240 297 240 t297 -240v-285q0 -238 -297 -237q-297 0 -297 237zM1233 256q0 -55 25.5 -75.5t78.5 -20.5t79 20.5t26 75.5v227q0 55 -25.5 76t-79.5 21q-53 0 -78.5 -20.5t-25.5 -76.5v-227z" />
<glyph unicode="&#x26;" horiz-adv-x="1476" d="M205 401q0 111 35.5 199t136.5 166q-117 135 -117 334t119 293q121 96 352 96q236 0 353.5 -111.5t117.5 -351.5h-268q0 63 -9.5 105.5t-33 67t-60 34.5t-92.5 10q-113 0 -157 -51q-47 -51 -47 -90q0 -123 51 -213q41 18 68.5 29.5t37.5 15.5l49 -227q-115 -49 -184 -115 q-66 -66 -65 -166q0 -102 55 -147q57 -45 196 -46q141 0 191 80q51 84 53 299h-98v217h551v-217h-189v-102q0 -74 -18 -178t-57 -172t-107 -107t-143.5 -51t-186.5 -12q-268 0 -401 107.5t-133 303.5z" />
<glyph unicode="'" horiz-adv-x="530" d="M139 1458h252l-20 -432h-211z" />
<glyph unicode="(" horiz-adv-x="688" d="M78 715q0 276 102 549q100 266 217 387l178 -178q-68 -86 -139 -310q-68 -219 -67 -442q0 -221 65 -436q68 -215 141 -297l-178 -178q-59 59 -113.5 151t-105.5 221q-100 252 -100 533z" />
<glyph unicode=")" horiz-adv-x="688" d="M78 -12q74 84 139 297q68 211 68 436q0 113 -17.5 222.5t-52.5 219.5q-35 111 -68.5 187.5t-68.5 122.5l178 178q117 -121 217 -387q102 -272 102 -549q0 -274 -102 -533q-100 -254 -217 -372z" />
<glyph unicode="*" horiz-adv-x="1011" d="M109 1049l43 182l241 -51l-82 241l185 54l61 -250l174 172l135 -131l-225 -189l260 -133l-102 -156l-232 138l-26 -8l-111 -236l-176 74l143 252z" />
<glyph unicode="+" d="M102 442v250h330v328h250v-328h328v-250h-328v-327h-250v327h-330z" />
<glyph unicode="," horiz-adv-x="571" d="M139 291h293v-215q0 -143 -94 -256q-94 -117 -199 -156v627z" />
<glyph unicode="-" horiz-adv-x="872" d="M121 461v248h631v-248h-631z" />
<glyph unicode="." horiz-adv-x="604" d="M129 141q0 102 33 133q33 33 135 33t133 -33q33 -31 33 -133t-33 -135q-31 -31 -133 -31t-135 31q-33 33 -33 135z" />
<glyph unicode="/" horiz-adv-x="825" d="M0 -150l584 1760h250l-584 -1760h-250z" />
<glyph unicode="0" horiz-adv-x="1161" d="M82 690v78q0 313 49 465q31 90 86 139q117 98 363 98q287 0 391 -155q106 -156 106 -545v-84q0 -152 -10 -254t-41 -192q-45 -129 -150.5 -189.5t-295.5 -60.5q-129 0 -217.5 28.5t-143.5 79.5t-86 142q-31 92 -41 194.5t-10 255.5zM356 623q0 -111 11.5 -186t31.5 -115 q39 -80 183 -80q139 0 180 77q41 78 41 304v227q0 199 -45 285q-43 82 -178 82t-179 -82q-45 -84 -45 -277v-235z" />
<glyph unicode="1" horiz-adv-x="897" d="M209 1262v198h242q133 0 174 -49q41 -51 41 -194v-1217h-279v1196z" />
<glyph unicode="2" horiz-adv-x="1122" d="M88 160q0 74 51 139q10 10 24.5 28.5t37.5 41.5l219 243q45 51 83 91t66 79q55 78 82 117t41 68q35 70 35 119t-39 96q-37 49 -137 49q-98 0 -136 -57.5t-38 -161.5h-268q0 104 16 179t63 142q94 137 381 137q217 0 333 -87t116 -253q0 -98 -47 -208q-23 -53 -46.5 -96.5 t-50.5 -75.5q-27 -33 -56.5 -69t-63.5 -77q-35 -41 -55.5 -64.5t-26.5 -31.5l-232 -268h564v-240h-699q-92 0 -154.5 37t-62.5 123z" />
<glyph unicode="3" horiz-adv-x="1095" d="M117 1012q0 236 107.5 347t324.5 111q446 0 446 -380q0 -225 -135 -363q156 -88 156 -334q0 -193 -121 -298t-342 -105q-219 0 -326.5 111.5t-107.5 299.5h260q0 -35 9 -68.5t48 -68.5q39 -33 123 -33q86 0 138.5 54.5t52.5 122.5q0 72 -27 104q-25 33 -37 48t-47 34 l-45 24q-6 4 -19.5 9.5t-35.5 15.5l-50 23l46 225l127 -60q78 100 77 256q0 41 -49 91q-47 49 -149 49q-49 0 -83 -10.5t-54.5 -35t-28.5 -66.5t-8 -103h-250z" />
<glyph unicode="4" horiz-adv-x="1208" d="M76 479q0 37 35 146q16 53 65 186t129 350h285l-223 -596h342v893h254v-893h163v-252h-163v-313h-254v313h-424q-104 0 -156.5 44t-52.5 122z" />
<glyph unicode="5" horiz-adv-x="1128" d="M74 401h260q-2 -23 4 -51t23.5 -54t49 -45.5t85.5 -19.5q55 -2 94 14.5t64.5 45t38 65.5t12.5 78q0 82 -11.5 129t-48.5 96q-74 102 -330 103h-157v672h772v-228h-510v-229q315 0 432 -129q119 -127 119 -377q0 -481 -467 -481q-215 0 -322.5 111.5t-107.5 299.5z" />
<glyph unicode="6" horiz-adv-x="1124" d="M84 455v313q0 160 13.5 274.5t37.5 190.5q16 45 37 80t49 59q113 98 361 98q446 0 446 -460l-252 2q-6 57 -18.5 96t-34 63.5t-56 35t-85.5 10.5q-143 0 -183 -87q-39 -88 -41 -337l232 100q121 0 206 -24.5t139 -79t79.5 -140.5t25.5 -209q0 -451 -477 -450 q-236 0 -357.5 115.5t-121.5 349.5zM356 547q0 -168 47 -238.5t166 -70.5q207 0 207 200q0 119 -34.5 178.5t-145.5 59.5z" />
<glyph unicode="7" horiz-adv-x="1132" d="M113 1204v256h927v-235l-538 -1225h-287l539 1204h-641z" />
<glyph unicode="8" horiz-adv-x="1146" d="M106 403q0 86 39 189q20 53 42 97t49 83q-109 104 -109 297q0 401 446 401q221 0 345 -98q123 -98 122 -305q0 -205 -145 -379q145 -98 145 -285q0 -117 -28.5 -195.5t-86 -126.5t-144.5 -69.5t-203 -21.5q-233 0 -352.5 104t-119.5 309zM373 395q0 -70 51 -112.5 t156 -42.5q104 0 149 38.5t45 120.5q0 57 -80 127t-248 140q-74 -115 -73 -271zM399 1044q0 -35 15.5 -64.5t51.5 -60t92 -63.5t140 -72q88 109 88 252q0 86 -51 138.5t-155 52.5q-181 -1 -181 -183z" />
<glyph unicode="9" horiz-adv-x="1124" d="M84 1030q0 123 28.5 210t88 140.5t148.5 78t212 24.5t213 -23.5t149.5 -76t88 -138.5t28.5 -209v-583q0 -233 -118.5 -348t-341.5 -115q-221 0 -329 111.5t-108 299.5h260q-2 -23 4.5 -51t24 -54t49 -45.5t84.5 -19.5q109 -4 159 58.5t50 159.5v215l-223 -127 q-467 0 -467 493zM362 1024q0 -113 44.5 -175.5t156.5 -62.5l219 129q0 168 -47 239t-166 71q-207 0 -207 -201z" />
<glyph unicode=":" horiz-adv-x="653" d="M182 711q0 102 33 133q33 33 135 33t133 -33q33 -31 33 -133t-33 -136q-31 -33 -133 -32q-102 0 -135 32q-33 33 -33 136zM186 141q0 102 33 133q33 33 135 33t133 -33q33 -31 33 -133t-33 -135q-31 -31 -133 -31t-135 31q-33 33 -33 135z" />
<glyph unicode=";" horiz-adv-x="632" d="M182 711q0 102 33 133q33 33 135 33t133 -33q33 -31 33 -133t-33 -136q-31 -33 -133 -32q-102 0 -135 32q-33 33 -33 136zM209 291h293v-215q0 -143 -94 -256q-94 -117 -199 -156v627z" />
<glyph unicode="&#x3c;" horiz-adv-x="1038" d="M115 469v217l788 385v-266l-516 -230l516 -227v-266z" />
<glyph unicode="=" d="M102 238v249h908v-249h-908zM102 682v250h908v-250h-908z" />
<glyph unicode="&#x3e;" horiz-adv-x="1011" d="M115 82v266l516 227l-516 230v266l788 -385v-217z" />
<glyph unicode="?" horiz-adv-x="1071" d="M113 1061q0 207 104.5 308t347.5 101q432 1 432 -409q0 -41 -9 -75t-22.5 -60.5t-25.5 -46t-18 -27.5q-4 -8 -16.5 -23.5t-28.5 -37.5l-35 -46l-137 -141q-37 -47 -37 -104v-64h-267v82q0 141 78 213l127 117q94 88 115 147q10 37 10 68q0 102 -40 135t-134 33 q-90 0 -137 -35q-45 -33 -45 -137q0 -102 63 -197l-207 -82q-66 80 -92 140.5t-26 140.5zM375 141q0 102 33 133q33 33 135 33t133 -33q33 -31 33 -133t-33 -135q-31 -31 -133 -31t-135 31q-33 33 -33 135z" />
<glyph unicode="@" horiz-adv-x="1773" d="M57 586q0 500 222 696q111 100 256 144t344 44q426 0 632 -172q205 -167 205 -585q0 -700 -321 -701q-94 0 -164 27t-101 67q-61 76 -61 156q0 16 1 35.5t3 42.5q-45 -141 -109.5 -198.5t-162.5 -57.5q-174 0 -273.5 122t-99.5 361q0 297 102 400q104 104 361 104h205 l147 12v-661q0 -154 28.5 -223.5t123.5 -69.5q201 0 200 582q0 346 -168 489q-170 147 -534 148q-365 0 -541 -177q-172 -176 -172 -563t191 -608q193 -223 579 -223l-14 -121q-152 0 -272.5 28.5t-215 81t-163 124t-113.5 159.5q-115 219 -115 537zM647 571 q0 -80 12.5 -132t38 -82.5t63.5 -43t91 -12.5q66 0 125 96t59 226v245h-145q-72 0 -119 -16t-74.5 -52t-39 -92.5t-11.5 -136.5z" />
<glyph unicode="A" horiz-adv-x="1306" d="M31 0l467 1335q25 72 65.5 97.5t95.5 25.5t89 -24.5t61 -98.5l467 -1335h-297l-82 252h-489l-80 -252h-297zM479 492h352l-172 577z" />
<glyph unicode="B" horiz-adv-x="1347" d="M170 375v1083h616q211 0 315.5 -103.5t104.5 -295.5q0 -55 -15 -102.5t-41 -86.5t-58.5 -66.5t-65.5 -43.5q201 -96 201 -340q0 -205 -108.5 -312.5t-307.5 -107.5h-197q-242 0 -344 84q-100 82 -100 291zM455 403q0 -86 41 -117.5t139 -31.5h147q160 0 160 180 q0 98 -34 148.5t-126 50.5h-327v-230zM455 889h309q158 0 158 158q0 157 -156 157h-2h-309v-315z" />
<glyph unicode="C" horiz-adv-x="1243" d="M80 645v123q0 516 287 649q117 53 272 53q231 0 379 -129q147 -129 147 -368h-266q-23 123 -80 183.5t-180 60.5q-141 0 -213 -91q-47 -63 -57 -217q-2 -25 -3 -58.5t-1 -74.5v-127q0 -233 65 -321q68 -86 209 -86q143 0 197 77q57 82 71 246h264q0 -281 -138 -428 t-394 -147q-559 0 -559 655z" />
<glyph unicode="D" horiz-adv-x="1349" d="M170 383v1075h567q246 0 385 -139q111 -113 133 -275q8 -57 10.5 -133.5t4.5 -175.5l2 -157v-17q0 -139 -32 -235q-34 -102 -118 -187q-139 -139 -405 -139q-315 0 -430 82q-117 82 -117 301zM455 397q0 -82 55 -112q55 -31 197 -31q143 0 217 90q39 45 49 129 q12 82 12 260q0 88 -4 151.5t-8 102.5q-6 41 -17.5 72.5t-31.5 54.5q-74 90 -213 90h-256v-807z" />
<glyph unicode="E" horiz-adv-x="1239" d="M170 385v1073h960v-254h-675v-342h473l-21 -254h-452v-202q0 -86 38.5 -119t141.5 -33h495v-254h-516q-248 0 -346 84q-98 82 -98 301z" />
<glyph unicode="F" horiz-adv-x="1208" d="M170 0v1161q0 162 70.5 229.5t242.5 67.5h647v-254h-514q-92 0 -126.5 -34.5t-34.5 -120.5v-203h534l-20 -254h-514v-592h-285z" />
<glyph unicode="G" horiz-adv-x="1304" d="M80 686v180q0 287 149 445q149 159 411 159h3q264 0 424 -159q113 -113 113 -338h-267q0 244 -260 244q-78 0 -132 -30t-81 -69q-25 -37 -41 -114q-8 -39 -11 -70t-5 -57q-2 -27 -2 -61v-77v-116l6 -97q2 -33 7 -56.5t9 -37.5q6 -14 14.5 -33.5t20 -39t24.5 -37t30 -27.5 q41 -25 89 -39t101 -14q178 0 252 151v99h-176v237h420v-440q-63 -150 -200.5 -224.5t-311.5 -74.5q-309 0 -447.5 172t-138.5 524z" />
<glyph unicode="H" horiz-adv-x="1402" d="M150 0v1458h284v-616h535v616h284v-1458h-284v590h-535v-590h-284z" />
<glyph unicode="I" horiz-adv-x="624" d="M170 0v1458h285v-1458h-285z" />
<glyph unicode="J" horiz-adv-x="1046" d="M14 150l160 174q35 -35 104.5 -58.5t161.5 -23.5t141.5 44t49.5 165v1007h284v-938q0 -293 -120 -414q-116 -116 -347 -116h-4q-147 0 -246.5 38t-183.5 122z" />
<glyph unicode="K" horiz-adv-x="1361" d="M170 0v1458h285v-815l551 815h286l-465 -686l502 -772h-332l-344 551l-198 -266v-285h-285z" />
<glyph unicode="L" horiz-adv-x="1126" d="M170 406v1052h285v-1052q0 -86 38.5 -119t141.5 -33h434v-254h-434q-246 0 -355.5 95t-109.5 311z" />
<glyph unicode="M" horiz-adv-x="1660" d="M150 0v1458h280l412 -842l409 842h281v-1458h-285v870l-262 -553q-27 -55 -63 -83q-35 -28 -74 -28h-3q-40 1 -78 29.5t-67 88.5l-266 546v-870h-284z" />
<glyph unicode="N" horiz-adv-x="1431" d="M150 0v1458h274l598 -954v954h285v-1311q0 -68 -41 -114.5t-97 -46.5q-72 0 -126 42t-105 119l-504 789v-936h-284z" />
<glyph unicode="O" horiz-adv-x="1318" d="M80 692v107q0 342 137 506.5t438 164.5q303 0 443.5 -166.5t140.5 -506.5v-111q0 -184 -34 -315t-104.5 -216t-180 -125t-263.5 -40t-262 40t-179 125t-103.5 218t-32.5 319zM365 692q0 -264 73 -356q29 -39 85.5 -66.5t133.5 -27.5q121 0 183.5 54t85.5 140 q28 101 28 246v10v76q0 197 -49 313q-59 135 -246 136q-190 0 -247 -136q-47 -113 -47 -313v-76z" />
<glyph unicode="P" horiz-adv-x="1286" d="M170 0v1458h565q229 0 355.5 -125t126.5 -370q0 -246 -126 -371t-356 -125h-280v-467h-285zM455 723h266q104 0 157.5 55.5t53.5 184.5q0 241 -209 241h-2h-266v-481z" />
<glyph unicode="Q" horiz-adv-x="1316" d="M80 690v78q0 209 24 330q25 119 109 202q86 86 201.5 128t244.5 42t244 -42t201 -130q90 -90 110 -198q25 -115 25 -330v-84q0 -350 -174 -481q109 6 209 35v-250h-615q-129 0 -244.5 40t-201.5 126q-84 84 -109 204q-24 114 -24 314v16zM365 692q0 -111 8 -183.5 t24 -113.5q57 -153 259 -153h3q178 0 238 102q37 70 47 143q4 45 7 97.5t3 113.5v99q0 258 -69 336q-72 84 -226 84q-156 0 -229 -87q-53 -66 -61 -221q-2 -27 -3 -61.5t-1 -79.5v-76z" />
<glyph unicode="R" horiz-adv-x="1339" d="M170 0v1145q0 164 76 238.5t254 74.5h241q217 0 344 -133q129 -133 129 -334q0 -74 -20 -138.5t-56 -116.5t-85 -90t-105 -58l326 -588h-330l-285 541h-204v-541h-285zM455 778h268q92 0 149.5 62.5t57.5 154.5q0 94 -56.5 151.5t-150.5 57.5h-141q-127 0 -127 -129v-297 z" />
<glyph unicode="S" horiz-adv-x="1210" d="M57 463l258 12q0 -111 95 -172q94 -61 208 -61q256 0 256 180q0 74 -43 119t-131 55l-237 25q-90 10 -160 42.5t-123 84.5q-104 100 -104 288t149 312q149 122 373 122h4q229 0 369 -116q139 -115 139 -297l-254 -13q-35 178 -240 179q-125 0 -195.5 -53.5t-70.5 -127.5 q0 -72 51.5 -114.5t126.5 -50.5l234 -25q197 -20 294 -128t97 -294q0 -205 -152 -326q-146 -114 -383 -114h-4q-94 0 -184 23.5t-176 76.5q-88 53 -142.5 150.5t-54.5 222.5z" />
<glyph unicode="T" horiz-adv-x="1169" d="M53 1204v254h1065v-254h-391v-1204h-285v1204h-389z" />
<glyph unicode="U" horiz-adv-x="1368" d="M127 500v958h285v-948q0 -135 74.5 -201.5t197.5 -66.5t198.5 66.5t75.5 201.5v948h283v-958q0 -238 -162 -375q-156 -135 -395 -135q-238 0 -397 135q-160 137 -160 375z" />
<glyph unicode="V" horiz-adv-x="1189" d="M6 1458h295l293 -950l293 950h297l-459 -1376q-16 -49 -50 -70.5t-81 -21.5q-49 0 -84 21.5t-51 70.5z" />
<glyph unicode="W" horiz-adv-x="1816" d="M12 1458h297l226 -919l223 759q25 84 60.5 127t94.5 43t91 -44t55 -126l221 -759l227 919h297l-391 -1458h-237l-269 885l-268 -885h-238z" />
<glyph unicode="X" horiz-adv-x="1310" d="M10 0l490 748l-459 710h350l273 -471l276 471h348l-459 -710l492 -748h-352l-305 508l-302 -508h-352z" />
<glyph unicode="Y" horiz-adv-x="1171" d="M6 1458h309l273 -588l268 588h309l-438 -860v-598h-283v598z" />
<glyph unicode="Z" horiz-adv-x="1122" d="M70 234q12 66 61 139l574 831h-596v254h931v-225l-665 -979h665v-254h-741q-84 0 -139 32q-56 32 -78 84q-15 35 -15 75q-1 21 3 43z" />
<glyph unicode="[" horiz-adv-x="774" d="M164 -150v1760h526v-240h-260v-1282h260v-238h-526z" />
<glyph unicode="\" horiz-adv-x="825" d="M0 1583h250l575 -1733h-250z" />
<glyph unicode="]" horiz-adv-x="774" d="M86 86h260v1286h-260v238h526v-1760h-526v236z" />
<glyph unicode="^" horiz-adv-x="1232" d="M129 797l365 676h245l365 -676h-279l-184 387l-51 -2l-182 -385h-279z" />
<glyph unicode="_" horiz-adv-x="1130" d="M0 -184h1130v-178h-1130v178z" />
<glyph unicode="`" horiz-adv-x="1024" d="M209 1602h280l78 -218q8 -23 8 -45q0 -53 -57 -53q-88 0 -158 98z" />
<glyph unicode="a" horiz-adv-x="1093" d="M18 543v92t2 63q2 51 9.5 118t23.5 112t45 93t70 77q90 63 240 63h280l266 17v-1178h-178l-82 141l-284 -151q-238 0 -320 170q-20 41 -34.5 87t-22.5 93q-8 49 -11.5 99t-3.5 104zM285 578q0 -86 9 -144.5t32.5 -95.5t61.5 -53.5t97 -16.5l203 105v549h-203 q-113 0 -156.5 -85t-43.5 -259z" />
<glyph unicode="b" horiz-adv-x="1146" d="M106 305v1235h267v-516l317 147q182 0 268 -98q76 -88 95 -285q6 -84 6 -202q0 -586 -404 -586h-6h-231q-154 0 -234 90q-78 90 -78 215zM373 322q0 -82 67 -95h131q221 0 222 359q0 180 -35 254q-35 71 -143 71h-3l-239 -129v-460z" />
<glyph unicode="c" horiz-adv-x="1062" d="M63 578q0 350 121 477q53 57 145.5 94t205.5 37q223 0 336.5 -109.5t113.5 -308.5h-242q0 92 -45 135t-168 43q-121 0 -160.5 -75.5t-39.5 -227.5v-106q0 -244 94 -299q20 -12 51 -18.5t61.5 -7.5t60.5 2t52 9q47 16 64 47q20 33 26 65t9 93l241 2l-8 -119q0 -8 -1 -19 t-3 -28q-4 -33 -9 -48t-14 -40q-37 -106 -200 -168q-78 -29 -163 -34q-22 -1 -43 -1q-62 1 -120 11q-78 14 -142.5 44.5t-101.5 73.5q-121 133 -121 476z" />
<glyph unicode="d" horiz-adv-x="1148" d="M63 543v92t3 63q2 51 9 118t23 112t45 93t70 77q90 63 240 63h280v379h266v-1540h-178l-82 141l-284 -151q-238 0 -320 170q-20 41 -34.5 87t-22.5 93q-8 49 -11.5 99t-3.5 104zM330 578q0 -86 9 -144.5t32.5 -95.5t61.5 -53.5t97 -16.5l203 105v549h-203 q-113 0 -156.5 -85t-43.5 -259z" />
<glyph unicode="e" horiz-adv-x="1122" d="M80 627q0 291 124 424t382 133q444 0 444 -494q0 -27 -1 -68.5t-3 -99.5h-682q0 -80 11.5 -138t39 -95t76.5 -55.5t125 -18.5q98 0 145 61q47 66 47 121h240q0 -221 -119 -321q-115 -100 -311 -101q-188 0 -299 54q-219 115 -219 598zM350 705h438q0 135 -51 196.5 t-157 61.5q-104 0 -167 -61.5t-63 -196.5z" />
<glyph unicode="f" horiz-adv-x="700" d="M51 922v202h111v113q0 125 80 215t231 90h172v-225h-125q-92 0 -92 -96v-97h217v-202h-217v-922h-266v922h-111z" />
<glyph unicode="g" horiz-adv-x="1136" d="M53 596q0 242 37 344q39 111 111 160q92 61 241 61h281l266 17v-1125q0 -195 -108.5 -297t-325.5 -102q-164 0 -291 65q-66 33 -104.5 97.5t-38.5 156.5l248 13q0 -57 41 -82t139 -25q100 0 134 49t38 140l10 176l-287 -154q-233 0 -317 160q-74 141 -74 346zM319 627 q0 -139 44.5 -197.5t156.5 -58.5l203 104v447h-203q-115 0 -158 -78t-43 -217z" />
<glyph unicode="h" horiz-adv-x="1165" d="M119 0v1540h266v-510l338 152q180 0 255 -101.5t75 -287.5v-793h-267v733q0 188 -147 189l-254 -101v-821h-266z" />
<glyph unicode="i" horiz-adv-x="563" d="M129 1462q0 47 6 77t23.5 47.5t47.5 23.5t79 6t78.5 -6t46 -23.5t22.5 -47.5t6 -79q0 -47 -6 -76.5t-23.5 -47t-47 -23.5t-78.5 -6q-47 0 -77 7t-47.5 24.5t-23.5 47t-6 76.5zM150 0v1126h266v-1126h-266z" />
<glyph unicode="j" horiz-adv-x="563" d="M-45 -121h100q94 0 95 96v1151h266v-1167q0 -127 -80 -215q-78 -90 -232 -90h-149v225zM129 1462q0 47 6 77t23.5 47.5t47.5 23.5t79 6t78.5 -6t46 -23.5t22.5 -47.5t6 -79q0 -47 -6 -76.5t-23.5 -47t-47 -23.5t-78.5 -6q-47 0 -77 7t-47.5 24.5t-23.5 47t-6 76.5z" />
<glyph unicode="k" horiz-adv-x="1144" d="M145 0v1540h267v-973l372 555h301l-383 -524l453 -598h-319l-308 414l-116 -166v-248h-267z" />
<glyph unicode="l" horiz-adv-x="542" d="M139 0v1540h267v-1540h-267z" />
<glyph unicode="m" horiz-adv-x="1794" d="M150 0v1169h198l62 -139l307 152q160 0 241 -156l381 156q160 0 239 -106.5t79 -291.5v-784h-266v727q0 111 -26 153t-89 42l-240 -101v-821h-266v727q0 195 -135 195l-219 -101v-821h-266z" />
<glyph unicode="n" horiz-adv-x="1173" d="M129 0v1169h199l61 -139l328 152q135 0 237 -103q102 -102 103 -295v-784h-266v748q0 100 -41 137t-115 37l-240 -101v-821h-266z" />
<glyph unicode="o" d="M63 590q0 268 97 424q106 172 387 172q283 0 391 -152q111 -151 111 -444q0 -379 -144 -508q-117 -109 -350 -109q-295 0 -395 170q-96 158 -97 447zM330 537q0 -326 225 -326q143 0 190 108q37 86 37 209v107q0 76 -9 134t-34.5 97t-69.5 59.5t-114 20.5 q-225 0 -225 -303v-106z" />
<glyph unicode="p" horiz-adv-x="1146" d="M150 -346v1507h524q238 0 323 -135q86 -134 86 -410q0 -459 -235 -583q-96 -49 -236 -49l-196 125v-455h-266zM416 379l180 -117q119 0 170 73.5t51 239.5q0 346 -221 347h-180v-543z" />
<glyph unicode="q" horiz-adv-x="1148" d="M61 543v92t2 63q2 51 9.5 118t23.5 112t44 93t69 77q47 35 107.5 49t134.5 14h280l266 17v-1522h-262l2 485l-284 -151q-238 0 -320 170q-20 41 -34.5 87t-22.5 93q-8 49 -11.5 99t-3.5 104zM328 578q0 -86 9 -144.5t32.5 -95.5t61.5 -53.5t97 -16.5l203 105v549h-203 q-113 0 -156.5 -85t-43.5 -259z" />
<glyph unicode="r" horiz-adv-x="798" d="M109 0v1169h198l62 -102l282 117q20 2 55 2t64 -21l-74 -262q-31 12 -69 12q-102 0 -252 -88v-827h-266z" />
<glyph unicode="s" horiz-adv-x="1026" d="M68 332v24h241q0 -94 49.5 -128.5t169.5 -34.5q164 0 164 118q0 98 -57 131q-14 8 -30.5 14.5t-37.5 10.5l-207 35q-270 45 -270 338q0 166 119 254q119 92 305 92q420 0 420 -363v-26h-232q-4 96 -51 131t-133 35t-128 -34t-42 -75q0 -115 94 -133l248 -45 q262 -47 262 -352v-31q0 -78 -32.5 -135.5t-90 -95t-135.5 -57t-166 -19.5q-264 0 -364 92q-96 86 -96 254z" />
<glyph unicode="t" horiz-adv-x="720" d="M61 920v202h113v230h266v-230h189v-202h-189v-598q0 -96 92 -97h117v-225h-166q-152 0 -231 90q-78 90 -78 215v615h-113z" />
<glyph unicode="u" horiz-adv-x="1173" d="M96 385v784h266v-727q0 -194 154 -194h2l240 129v792h266v-1169h-199l-61 139l-328 -149q-141 0 -239 98q-100 100 -101 297z" />
<glyph unicode="v" horiz-adv-x="1009" d="M8 1169h281l217 -761l215 761h280l-391 -1169h-209z" />
<glyph unicode="w" horiz-adv-x="1554" d="M8 1169h283l172 -761l178 626q37 135 139 135q51 0 82 -32.5t51 -102.5l181 -626l172 761h280l-325 -1169h-220l-223 711l-223 -711h-219z" />
<glyph unicode="x" horiz-adv-x="1079" d="M25 0l378 596l-364 573h299l205 -338l198 338h299l-364 -573l368 -596h-299l-206 358l-195 -358h-319z" />
<glyph unicode="y" horiz-adv-x="1011" d="M8 1169h281l209 -813l225 813h281l-445 -1298q-31 -88 -80 -137q-82 -82 -229 -82h-125v239h82q57 0 84.5 19.5t48.5 77.5l20 55z" />
<glyph unicode="z" horiz-adv-x="978" d="M37 206q12 62 65 130l488 604h-488v229h807v-202l-581 -738h561v-229h-637q-76 0 -129 26.5t-75 72.5q-15 30 -15 67q0 19 4 40z" />
<glyph unicode="{" horiz-adv-x="935" d="M186 727q0 49 22.5 85t70.5 36q49 0 77.5 49t28.5 113l-61 297q0 141 80.5 222t234.5 81h209v-240q-164 0 -211 -33q-47 -31 -47 -127l61 -235q0 -98 -45 -161.5t-96 -84.5q51 -20 96 -83.5t45 -162.5l-61 -235q0 -59 16 -92q33 -68 242 -68v-238h-209q-154 0 -234.5 80 t-80.5 222l61 297q0 61 -26.5 109t-77.5 50q-49 2 -72 37t-23 82z" />
<glyph unicode="|" horiz-adv-x="716" d="M225 -150v1760h267v-1760h-267z" />
<glyph unicode="}" horiz-adv-x="935" d="M150 88q209 0 243 68q14 29 15 92l-62 235q0 98 45 162t96 84q-51 20 -96 84t-45 162l62 235q0 92 -50 127q-49 33 -208 33v240h208q154 0 235 -81t81 -222l-62 -297q0 -63 29 -112.5t76 -49.5q49 0 71.5 -36t22.5 -85q0 -47 -22.5 -82t-73.5 -37q-49 -2 -76 -50 t-27 -109l62 -297q0 -141 -81 -221.5t-235 -80.5h-208v238z" />
<glyph unicode="~" horiz-adv-x="1241" d="M76 600q49 49 92 83t78 54q72 39 174 39q98 0 213 -59q55 -31 103 -46.5t91 -13.5t84 22.5t84 63.5l170 -168q-47 -47 -90 -81.5t-82 -55.5q-72 -39 -174 -39q-98 0 -213 60q-55 31 -103 46t-91 13t-84 -22.5t-84 -63.5z" />
<glyph unicode="&#xa1;" horiz-adv-x="710" d="M205 969q0 102 33 133q33 33 135 33t133 -33q33 -31 33 -133t-33 -135q-31 -33 -133 -33t-135 33t-33 135zM211 -346l59 883q4 59 36 88.5t69 30.5t68.5 -28.5t35.5 -90.5l62 -883h-330z" />
<glyph unicode="&#xa2;" horiz-adv-x="1021" d="M63 600q0 111 14.5 199t53.5 170q80 166 315 211v186h209v-190q162 -29 246 -134.5t84 -273.5h-242q0 92 -45 135t-163 43q-104 0 -158 -53q-39 -39 -45 -150q-2 -16 -2 -41.5v-58.5v-106q0 -205 45 -263q51 -63 160 -63q143 0 178 59q20 33 26 65t9 93l241 2 q-16 -172 -39 -240q-20 -70 -57 -102q-78 -72 -238 -102v-209h-209v203q-188 31 -276 147q-80 104 -98 285q-4 39 -6.5 86t-2.5 102z" />
<glyph unicode="&#xa3;" horiz-adv-x="1185" d="M82 608v205h125v154q0 293 110 391q113 100 404 100q119 0 206 -34.5t167 -114.5l-187 -187q-82 82 -200 82q-117 0 -167.5 -59.5t-50.5 -190.5v-141h232v-205h-232v-254q0 -63 25 -81.5t102 -18.5h457v-254h-584q-170 0 -227 63q-55 63 -55 244v301h-125z" />
<glyph unicode="&#xa4;" horiz-adv-x="1370" d="M119 197l151 149q-68 117 -67.5 240t67.5 239l-151 150l176 176l151 -150q111 66 239 66t239 -66l151 150l174 -176l-149 -150q66 -111 65.5 -239.5t-65.5 -239.5l149 -149l-174 -177l-151 150q-111 -66 -239 -66t-239 66l-151 -150zM444 586q0 -100 70 -170t170 -70 t170 70q72 72 72 170t-72 170q-70 70 -170 69q-100 0 -170 -69q-70 -70 -70 -170z" />
<glyph unicode="&#xa5;" horiz-adv-x="1058" d="M41 1458h270l221 -569l218 569h272l-322 -729h113v-194h-168v-144h164v-194h-164v-197h-229v197h-158v194h158v144h-154v194h98z" />
<glyph unicode="&#xa6;" horiz-adv-x="722" d="M225 -150v715h267v-715h-267zM225 893v717h267v-717h-267z" />
<glyph unicode="&#xa7;" horiz-adv-x="1087" d="M-8 352h244q0 -102 81 -166q82 -63 193 -63q113 0 182 57q-66 16 -122 40t-101 56q-209 147 -307.5 336t-98.5 387q0 260 143.5 392.5t391.5 132.5q119 0 203 -35t131 -76t85 -110.5t52 -161.5l-244 -19q0 80 -69 117q-68 37 -176 37q-106 0 -170 -57q129 -51 227 -103.5 t164 -109.5q135 -113 201.5 -249.5t66.5 -326.5q0 -248 -145 -405q-145 -152 -410 -152q-362 0 -473 233q-23 49 -34 111t-15 135zM340 967q20 -262 278 -463q78 -61 175 -86v22q0 231 -154 365q-115 98 -299 162z" />
<glyph unicode="&#xa8;" horiz-adv-x="1024" d="M143 1421q0 80 35 109q39 29 103 29q65 0 100 -29q37 -29 37 -109q0 -82 -37 -108q-35 -29 -100 -29q-63 0 -103 29q-35 29 -35 108zM606 1421q0 80 35 109q39 29 102 29q66 0 101 -29q37 -29 37 -109q0 -82 -37 -108q-35 -29 -101 -29q-63 0 -102 29q-35 29 -35 108z " />
<glyph unicode="&#xa9;" horiz-adv-x="1728" d="M123 729q0 385 178 563t563 178t563 -178t179 -563q0 -385 -179 -563q-176 -176 -563 -176t-563 176q-178 178 -178 563zM225 729q0 -358 144 -508q145 -151 495 -151q352 0 506 153q154 154 154 498q0 346 -161 507t-505 161t-489 -152q-143 -150 -144 -508zM549 682v68 q0 190 73.5 298.5t256.5 108.5q137 0 223 -80t86 -233h-184q-23 133 -125 133q-90 0 -113 -72q-18 -59 -18 -151v-70q0 -152 59 -186q29 -16 82 -17q57 0 83.5 42t33.5 134h184q0 -174 -82 -265t-229 -91q-330 0 -330 381z" />
<glyph unicode="&#xaa;" horiz-adv-x="929" d="M47 856q0 57 18.5 108.5t53.5 90.5t88 60.5t125 21.5h186q0 82 -27.5 116.5t-93.5 34.5q-141 0 -141 -88h-197q0 283 338 283q168 0 257 -82t89 -219v-574h-172l-41 86l-196 -92q-125 0 -206 68.5t-81 185.5zM260 890q0 -34 21.5 -63.5t62.5 -31.5l174 88v96h-158 q-51 0 -75.5 -27.5t-24.5 -61.5z" />
<glyph unicode="&#xab;" horiz-adv-x="1286" d="M96 567q0 33 21.5 73t68.5 81l394 350v-317l-234 -191l234 -190v-318l-398 355q-86 94 -86 157zM672 567q0 33 21.5 73t68.5 81l393 350v-317l-233 -191l233 -190v-318l-397 355q-86 94 -86 157z" />
<glyph unicode="&#xac;" d="M115 502v235h903v-553h-248v318h-655z" />
<glyph unicode="&#xad;" horiz-adv-x="872" d="M121 461v248h631v-248h-631z" />
<glyph unicode="&#xae;" horiz-adv-x="1728" d="M123 729q0 385 178 563t563 178t563 -178t179 -563q0 -385 -179 -563q-176 -176 -563 -176t-563 176q-178 178 -178 563zM225 729q0 -358 144 -508q145 -151 495 -151q352 0 506 153q154 154 154 498q0 346 -161 507t-505 161t-489 -152q-143 -150 -144 -508zM582 328 v626q0 98 45 142.5t151 44.5h127q127 0 197 -76q74 -78 74 -174q0 -182 -136 -244q53 -96 99.5 -175t81.5 -144h-220l-151 286h-76v-286h-192zM774 778h121q45 0 66.5 31t21.5 67.5t-21.5 65.5t-66.5 25h-74q-47 0 -47 -52v-137z" />
<glyph unicode="&#xaf;" horiz-adv-x="1024" d="M188 1290v178h648v-178h-648z" />
<glyph unicode="&#xb0;" horiz-adv-x="978" d="M113 1110q0 211 90 295q94 84 286 84q195 0 285 -84q92 -84 92 -295t-90 -295q-88 -82 -287 -82t-286 82q-90 84 -90 295zM328 1110q0 -98 37 -131q35 -33 124 -33q90 0 125 33q37 33 37 131q0 96 -39 129q-39 35 -125 35q-84 0 -122 -35q-37 -35 -37 -129z" />
<glyph unicode="&#xb1;" d="M102 0v250h908v-250h-908zM102 698v248h330v330h250v-330h328v-248h-328v-329h-250v329h-330z" />
<glyph unicode="&#xb2;" horiz-adv-x="733" d="M88 713q0 53 57 116l152 168q147 162 147 228q0 63 -77 63q-47 0 -63.5 -30.5t-16.5 -90.5h-187q0 139 55.5 216t200.5 77q147 0 216 -53t69 -139q0 -82 -33 -154t-67 -115q-16 -20 -43 -49.5t-62 -68.5t-58.5 -63.5t-33.5 -39.5h291v-172h-406q-141 0 -141 107z" />
<glyph unicode="&#xb3;" horiz-adv-x="753" d="M109 1163q0 297 264 297q270 0 270 -233q0 -123 -65 -201q76 -63 75 -186q0 -123 -75 -187q-76 -66 -207 -65q-131 0 -195.5 73.5t-64.5 196.5h184q0 -96 74 -96q49 0 72.5 24.5t23.5 55.5q0 35 -21 57q-18 27 -36.5 37t-57.5 27l-35 14l33 164l82 -37q29 53 29 123 q0 16 -21.5 36.5t-68.5 20.5t-64.5 -24.5t-17.5 -96.5h-178z" />
<glyph unicode="&#xb4;" horiz-adv-x="1024" d="M455 1339q0 23 8 45l78 218h280l-151 -218q-72 -98 -158 -98q-57 0 -57 53z" />
<glyph unicode="&#xb5;" horiz-adv-x="1136" d="M96 350.5v34.5v784h266v-737q0 -98 44.5 -141t111.5 -43l240 129v792h266v-1169h-199l-61 139l-328 -149q-41 0 -74 6v-74q0 -72 -57 -137q-57 -70 -123 -70h-84v611q-2 10 -2 24.5z" />
<glyph unicode="&#xb6;" horiz-adv-x="1368" d="M51 885q0 133 16.5 215t63.5 145q49 63 139 90t234 27h223v-1765h-266v835q-238 0 -324 105q-86 104 -86 348zM870 -403v1765q170 0 217 -45q49 -47 50 -168v-1323q0 -160 -45 -193q-47 -37 -222 -36z" />
<glyph unicode="&#xb7;" horiz-adv-x="604" d="M129 594q0 102 33 133q33 33 135 33t133 -33q33 -31 33 -133t-33 -135q-31 -33 -133 -33t-135 33t-33 135z" />
<glyph unicode="&#xb8;" horiz-adv-x="1024" d="M348 -340l43 104q37 -6 72 -6q84 0 84 64q0 70 -119 69l61 152h132l-37 -90q98 -29 98 -113q0 -88 -57.5 -138t-180.5 -50q-14 0 -37.5 2t-58.5 6z" />
<glyph unicode="&#xb9;" horiz-adv-x="598" d="M129 1339v121h174q82 0 106.5 -29.5t24.5 -117.5v-735h-190v722z" />
<glyph unicode="&#xba;" horiz-adv-x="946" d="M113 1028q0 217 82.5 328.5t275.5 111.5t278 -108.5t85 -325.5t-83 -326.5t-276 -109.5t-277.5 106.5t-84.5 323.5zM328 1034q0 -127 25.5 -185t115.5 -58q92 0 120.5 55t28.5 182q0 129 -25.5 188.5t-117.5 59.5q-90 0 -118.5 -56.5t-28.5 -185.5z" />
<glyph unicode="&#xbb;" horiz-adv-x="1286" d="M135 55v318l234 190l-234 191v317l397 -354q86 -96 86 -160q0 -31 -21.5 -71t-68.5 -80zM711 55v318l233 190l-233 191v317l397 -354q86 -96 86 -160q0 -31 -21.5 -71t-68.5 -80z" />
<glyph unicode="&#xbc;" horiz-adv-x="1712" d="M145 1339v121h174q82 0 107 -29.5t25 -117.5v-735h-191v722zM381 0l690 1458h209l-690 -1458h-209zM1006 299q0 66 131 420h206l-118 -348h151v522h189v-522h96v-189h-96v-182h-189v182h-229q-141 0 -141 117z" />
<glyph unicode="&#xbd;" horiz-adv-x="1765" d="M145 1339v121h174q82 0 107 -29.5t25 -117.5v-735h-191v722zM373 0l690 1458h207l-690 -1458h-207zM1112 109q0 53 57 116l152 168q147 162 147 228q0 63 -77 63q-47 0 -63.5 -30.5t-16.5 -90.5h-187q0 139 55.5 216t200.5 77q147 0 216 -53t69 -139q0 -82 -33 -154 t-67 -115q-16 -20 -43 -50t-62 -69t-58.5 -63.5t-33.5 -38.5h291v-172h-406q-141 0 -141 107z" />
<glyph unicode="&#xbe;" horiz-adv-x="1771" d="M109 1163q0 297 264 297q270 0 270 -233q0 -123 -65 -201q76 -63 75 -186q0 -123 -75 -187q-76 -66 -207 -65q-131 0 -195.5 73.5t-64.5 196.5h184q0 -96 74 -96q49 0 72.5 24.5t23.5 55.5q0 35 -21 57q-18 27 -36.5 37t-57.5 27l-35 14l33 164l82 -37q29 53 29 123 q0 16 -21.5 36.5t-68.5 20.5t-64.5 -24.5t-17.5 -96.5h-178zM446 0l691 1458h209l-691 -1458h-209zM1006 299q0 66 131 420h206l-118 -348h151v522h189v-522h96v-189h-96v-182h-189v182h-229q-141 0 -141 117z" />
<glyph unicode="&#xbf;" horiz-adv-x="1071" d="M78 6q0 84 31 135l43 72q6 10 17 24.5t28 36.5q16 23 25 34t11 14l138 141q37 45 37 104v64h266v-82q0 -141 -78 -213l-127 -115q-92 -84 -115 -149q-10 -37 -10 -68q0 -51 9 -83t31 -50t53.5 -25.5t78.5 -7.5q92 0 139 35q45 33 45 133q0 104 -63 199l207 82 q66 -80 92.5 -140.5t26.5 -140.5q0 -207 -104.5 -307t-348.5 -100q-432 -1 -432 407zM367 926q0 100 30 135q33 33 135 33t136 -33q33 -33 32 -135q0 -102 -32 -135q-35 -31 -136 -31q-102 0 -135 31q-31 33 -30 135z" />
<glyph unicode="&#xc0;" horiz-adv-x="1306" d="M31 0l467 1335q25 72 65.5 97.5t95.5 25.5t89 -24.5t61 -98.5l467 -1335h-297l-82 252h-489l-80 -252h-297zM346 1964h281l78 -217q8 -23 8 -45q0 -53 -58 -53q-88 0 -157 98zM479 492h352l-172 536z" />
<glyph unicode="&#xc1;" horiz-adv-x="1306" d="M31 0l467 1335q25 72 65.5 97.5t95.5 25.5t89 -24.5t61 -98.5l467 -1335h-297l-82 252h-489l-80 -252h-297zM479 492h352l-172 536zM592 1702q0 23 8 45l78 217h280l-151 -217q-72 -98 -158 -98q-57 0 -57 53z" />
<glyph unicode="&#xc2;" horiz-adv-x="1306" d="M31 0l467 1335q25 72 65.5 97.5t95.5 25.5t89 -24.5t61 -98.5l467 -1335h-297l-82 252h-489l-80 -252h-297zM340 1670.5q2 17.5 10 27.5l193 248h213l192 -248q6 -10 8 -27.5t-3 -33t-18 -27t-36 -11.5q-78 0 -158 99l-92 114l-92 -114q-80 -98 -158 -99q-23 0 -36 11.5 t-19 27t-4 33zM479 492h352l-172 536z" />
<glyph unicode="&#xc3;" horiz-adv-x="1306" d="M31 0l467 1335q25 72 65.5 97.5t95.5 25.5t89 -24.5t61 -98.5l467 -1335h-297l-82 252h-489l-80 -252h-297zM279 1763q68 68 119 94.5t120 26.5q70 0 141 -43q74 -43 144.5 -43t120.5 47l94 -102q-121 -121 -232 -121q-80 0 -149 41q-72 41 -136.5 42t-119.5 -48z M479 492h352l-172 536z" />
<glyph unicode="&#xc4;" horiz-adv-x="1306" d="M31 0l467 1335q25 72 65.5 97.5t95.5 25.5t89 -24.5t61 -98.5l467 -1335h-297l-82 252h-489l-80 -252h-297zM281 1784q0 80 34 108q39 29 103 29q65 0 100 -29q37 -29 37 -108q0 -82 -37 -109q-35 -29 -100 -28q-63 0 -103 28q-35 29 -34 109zM479 492h352l-172 536z M743 1784q0 80 35 108q39 29 103 29q65 0 100 -29q37 -29 37 -108q0 -82 -37 -109q-35 -29 -100 -28q-63 0 -103 28q-35 29 -35 109z" />
<glyph unicode="&#xc5;" horiz-adv-x="1306" d="M31 0l467 1335q25 72 65.5 97.5t95.5 25.5t89 -24.5t61 -98.5l467 -1335h-297l-82 252h-489l-80 -252h-297zM381 1810q0 269 268 269t269 -269q0 -268 -269 -268q-268 0 -268 268zM479 492h352l-172 536zM530 1810q0 -74 31 -98q14 -12 39 -17t49.5 -5t48 5t39.5 17 q31 25 31 98q0 74 -31 97q-29 23 -88 22q-57 0 -90 -22q-29 -23 -29 -97z" />
<glyph unicode="&#xc6;" horiz-adv-x="2004" d="M39 0l899 1458h960v-254h-675v-342h473l-41 -254h-432v-202q0 -86 38.5 -119t141.5 -33h495v-254h-495q-199 0 -306.5 58.5t-142.5 193.5h-467l-151 -252h-297zM606 492h332v536z" />
<glyph unicode="&#xc7;" horiz-adv-x="1179" d="M80 645v123q0 516 287 649q117 53 272 53q231 0 379 -129q147 -129 147 -368h-266q-23 123 -80 183.5t-180 60.5q-141 0 -213 -91q-47 -63 -57 -217q-2 -25 -3 -58.5t-1 -74.5v-127q0 -233 65 -321q68 -86 209 -86q143 0 197 77q57 82 71 246h264q0 -260 -118.5 -406.5 t-341.5 -164.5l-17 -41q98 -29 99 -113q0 -88 -57.5 -138t-180.5 -50q-14 0 -37.5 2t-58.5 6l43 104q37 -6 71 -6q84 0 84 64q0 70 -118 69l39 101q-498 31 -498 653z" />
<glyph unicode="&#xc8;" horiz-adv-x="1239" d="M170 406v1052h960v-254h-675v-342h473l-41 -254h-432v-202q0 -86 38.5 -119t141.5 -33h495v-254h-495q-246 0 -355.5 95t-109.5 311zM332 1964h280l78 -217q8 -23 8 -45q0 -53 -57 -53q-88 0 -158 98z" />
<glyph unicode="&#xc9;" horiz-adv-x="1239" d="M170 406v1052h960v-254h-675v-342h473l-41 -254h-432v-202q0 -86 38.5 -119t141.5 -33h495v-254h-495q-246 0 -355.5 95t-109.5 311zM575 1702q0 23 9 45l78 217h280l-151 -217q-72 -98 -158 -98q-57 0 -58 53z" />
<glyph unicode="&#xca;" horiz-adv-x="1239" d="M170 406v1052h960v-254h-675v-342h473l-41 -254h-432v-202q0 -86 38.5 -119t141.5 -33h495v-254h-495q-246 0 -355.5 95t-109.5 311zM326 1670.5q2 17.5 10 27.5l192 248h213l193 -248q6 -10 8 -27.5t-3 -33t-18.5 -27t-35.5 -11.5q-78 0 -158 99l-92 114l-92 -114 q-80 -98 -158 -99q-23 0 -36 11.5t-19 27t-4 33z" />
<glyph unicode="&#xcb;" horiz-adv-x="1239" d="M170 406v1052h960v-254h-675v-342h473l-41 -254h-432v-202q0 -86 38.5 -119t141.5 -33h495v-254h-495q-246 0 -355.5 95t-109.5 311zM266 1784q0 80 35 108q39 29 102 29q66 0 101 -29q37 -29 37 -108q0 -82 -37 -109q-35 -29 -101 -28q-63 0 -102 28q-35 29 -35 109z M729 1784q0 80 35 108q39 29 102 29q66 0 101 -29q37 -29 37 -108q0 -82 -37 -109q-35 -29 -101 -28q-63 0 -102 28q-35 29 -35 109z" />
<glyph unicode="&#xcc;" horiz-adv-x="624" d="M63 1964h281l78 -217q8 -23 8 -45q0 -53 -57 -53q-88 0 -158 98zM170 0v1458h285v-1458h-285z" />
<glyph unicode="&#xcd;" horiz-adv-x="624" d="M170 0v1458h285v-1458h-285zM207 1702q0 23 8 45l78 217h280l-151 -217q-72 -98 -158 -98q-57 0 -57 53z" />
<glyph unicode="&#xce;" horiz-adv-x="624" d="M1 1670.5q1 17.5 9 27.5l193 248h213l192 -248q6 -10 8 -27.5t-3 -33t-18 -27t-36 -11.5q-78 0 -158 99l-92 114l-92 -114q-80 -98 -158 -99q-23 0 -36 11.5t-18 27t-4 33zM170 0v1458h285v-1458h-285z" />
<glyph unicode="&#xcf;" horiz-adv-x="624" d="M-53 1784q0 80 37 108q33 29 98 29t100 -29q37 -29 37 -108q0 -82 -37 -109q-35 -29 -100 -28q-66 0 -98 28q-37 27 -37 109zM170 0v1458h285v-1458h-285zM408 1784q0 80 34 108q39 29 103 29q65 0 100 -29q37 -29 37 -108q0 -82 -37 -109q-35 -29 -100 -28 q-63 0 -103 28q-35 29 -34 109z" />
<glyph unicode="&#xd0;" horiz-adv-x="1396" d="M74 629v217h116v612h568q246 0 385 -139q111 -113 133 -275q8 -57 10 -133.5t4 -175.5l2 -157q2 -150 -31.5 -252.5t-117.5 -186.5q-139 -139 -385 -139q-315 0 -441 92q-127 96 -127 311v226h-116zM475 397q0 -82 55 -112q55 -31 197 -31q143 0 217 90q39 45 49 129 q12 82 13 260q0 88 -4.5 151.5t-8.5 102.5q-6 41 -17.5 72.5t-31.5 54.5q-74 90 -213 90h-256v-358h266v-217h-266v-232z" />
<glyph unicode="&#xd1;" horiz-adv-x="1458" d="M150 0v1458h274l598 -954v954h285v-1311q0 -68 -41 -114.5t-97 -46.5q-72 0 -126 42t-105 119l-504 789v-936h-284zM358 1763q68 68 119 94.5t121 26.5t141 -43q74 -43 144.5 -43t120.5 47l94 -102q-121 -121 -232 -121q-80 0 -149 41q-72 41 -136.5 42t-119.5 -48z" />
<glyph unicode="&#xd2;" horiz-adv-x="1318" d="M80 690v78q0 360 138 531t441 171q580 0 580 -673v-111q0 -184 -34 -315t-104.5 -216t-180 -125t-263.5 -40t-262 40t-179 124t-103.5 217t-32.5 319zM356 1964h281l78 -217q8 -23 8 -45q0 -53 -57 -53q-88 0 -158 98zM365 692q0 -111 8 -183.5t24 -113.5 q57 -154 262 -153q178 0 238 102q37 70 47 143q4 45 7 97.5t3 113.5v99q0 258 -69 336q-72 84 -226 84q-156 0 -229 -87q-53 -66 -61 -221q-2 -27 -3 -61.5t-1 -79.5v-76z" />
<glyph unicode="&#xd3;" horiz-adv-x="1318" d="M80 690v78q0 360 138 531t441 171q580 0 580 -673v-111q0 -184 -34 -315t-104.5 -216t-180 -125t-263.5 -40t-262 40t-179 124t-103.5 217t-32.5 319zM365 692q0 -111 8 -183.5t24 -113.5q57 -154 262 -153q178 0 238 102q37 70 47 143q4 45 7 97.5t3 113.5v99 q0 258 -69 336q-72 84 -226 84q-156 0 -229 -87q-53 -66 -61 -221q-2 -27 -3 -61.5t-1 -79.5v-76zM602 1702q0 23 8 45l78 217h281l-152 -217q-72 -98 -158 -98q-57 0 -57 53z" />
<glyph unicode="&#xd4;" horiz-adv-x="1318" d="M80 690v78q0 360 138 531t441 171q580 0 580 -673v-111q0 -184 -34 -315t-104.5 -216t-180 -125t-263.5 -40t-262 40t-179 124t-103.5 217t-32.5 319zM350 1670.5q2 17.5 10 27.5l193 248h213l192 -248q6 -10 8.5 -27.5t-3 -33t-18.5 -27t-36 -11.5q-78 0 -157 99 l-93 114l-92 -114q-80 -98 -157 -99q-23 0 -36.5 11.5t-19.5 27t-4 33zM365 692q0 -111 8 -183.5t24 -113.5q57 -154 262 -153q178 0 238 102q37 70 47 143q4 45 7 97.5t3 113.5v99q0 258 -69 336q-72 84 -226 84q-156 0 -229 -87q-53 -66 -61 -221q-2 -27 -3 -61.5 t-1 -79.5v-76z" />
<glyph unicode="&#xd5;" horiz-adv-x="1318" d="M80 690v78q0 360 138 531t441 171q580 0 580 -673v-111q0 -184 -34 -315t-104.5 -216t-180 -125t-263.5 -40t-262 40t-179 124t-103.5 217t-32.5 319zM289 1763q68 68 119 94.5t120 26.5q70 0 142 -43q74 -43 144.5 -43t119.5 47l94 -102q-121 -121 -231 -121 q-80 0 -150 41q-72 41 -136.5 42t-119.5 -48zM365 692q0 -111 8 -183.5t24 -113.5q57 -154 262 -153q178 0 238 102q37 70 47 143q4 45 7 97.5t3 113.5v99q0 258 -69 336q-72 84 -226 84q-156 0 -229 -87q-53 -66 -61 -221q-2 -27 -3 -61.5t-1 -79.5v-76z" />
<glyph unicode="&#xd6;" horiz-adv-x="1318" d="M80 690v78q0 360 138 531t441 171q580 0 580 -673v-111q0 -184 -34 -315t-104.5 -216t-180 -125t-263.5 -40t-262 40t-179 124t-103.5 217t-32.5 319zM291 1784q0 80 35 108q39 29 102 29q65 0 100 -29q37 -29 37 -108q0 -82 -37 -109q-35 -29 -100 -28q-63 0 -102 28 q-35 29 -35 109zM365 692q0 -111 8 -183.5t24 -113.5q57 -154 262 -153q178 0 238 102q37 70 47 143q4 45 7 97.5t3 113.5v99q0 258 -69 336q-72 84 -226 84q-156 0 -229 -87q-53 -66 -61 -221q-2 -27 -3 -61.5t-1 -79.5v-76zM754 1784q0 80 34 108q39 29 103 29 q65 0 100 -29q37 -29 37 -108q0 -82 -37 -109q-35 -29 -100 -28q-63 0 -103 28q-35 29 -34 109z" />
<glyph unicode="&#xd7;" d="M100 297l289 289l-289 288l168 168l287 -288l289 288l168 -168l-289 -288l289 -289l-168 -168l-289 289l-287 -289z" />
<glyph unicode="&#xd8;" horiz-adv-x="1353" d="M80 692v107q0 340 138 505.5t441 165.5q125 0 226 -32l51 106h209l-92 -196q186 -162 186 -551v-111q0 -184 -34 -315t-104.5 -216t-180 -125t-261.5 -40q-131 0 -235 28l-51 -108h-209l94 199q-178 160 -178 583zM365 692q0 -193 34 -286l373 792q-47 18 -129 19 q-80 0 -141.5 -34t-89.5 -102q-47 -113 -47 -313v-76zM539 260q25 -10 57.5 -14t66 -4t67.5 7t63 19q55 27 85.5 66t47.5 102q29 104 28 256v76q0 193 -39 291z" />
<glyph unicode="&#xd9;" horiz-adv-x="1368" d="M127 500v958h285v-948q0 -135 74.5 -201.5t197.5 -66.5t198.5 66.5t75.5 201.5v948h283v-958q0 -238 -162 -375q-156 -135 -395 -135q-238 0 -397 135q-160 137 -160 375zM381 1964h281l77 -217q8 -23 9 -45q0 -53 -58 -53q-88 0 -158 98z" />
<glyph unicode="&#xda;" horiz-adv-x="1368" d="M127 500v958h285v-948q0 -135 74.5 -201.5t197.5 -66.5t198.5 66.5t75.5 201.5v948h283v-958q0 -238 -162 -375q-156 -135 -395 -135q-238 0 -397 135q-160 137 -160 375zM627 1702q0 23 8 45l78 217h280l-151 -217q-72 -98 -158 -98q-57 0 -57 53z" />
<glyph unicode="&#xdb;" horiz-adv-x="1368" d="M127 500v958h285v-948q0 -135 74.5 -201.5t197.5 -66.5t198.5 66.5t75.5 201.5v948h283v-958q0 -238 -162 -375q-156 -135 -395 -135q-238 0 -397 135q-160 137 -160 375zM375 1670.5q2 17.5 10 27.5l193 248h213l192 -248q6 -10 8 -27.5t-3 -33t-18.5 -27t-35.5 -11.5 q-78 0 -158 99l-92 114l-92 -114q-80 -98 -158 -99q-23 0 -36 11.5t-19 27t-4 33z" />
<glyph unicode="&#xdc;" horiz-adv-x="1368" d="M127 500v958h285v-948q0 -135 74.5 -201.5t197.5 -66.5t198.5 66.5t75.5 201.5v948h283v-958q0 -238 -162 -375q-156 -135 -395 -135q-238 0 -397 135q-160 137 -160 375zM315 1784q0 80 35 108q39 29 103 29q65 0 100 -29q37 -29 37 -108q0 -82 -37 -109 q-35 -29 -100 -28q-63 0 -103 28q-35 29 -35 109zM778 1784q0 80 35 108q39 29 102 29q66 0 101 -29q37 -29 37 -108q0 -82 -37 -109q-35 -29 -101 -28q-63 0 -102 28q-35 29 -35 109z" />
<glyph unicode="&#xdd;" horiz-adv-x="1171" d="M6 1458h309l273 -588l268 588h309l-438 -860v-598h-283v598zM526 1702q0 23 9 45l77 217h281l-152 -217q-72 -98 -157 -98q-57 0 -58 53z" />
<glyph unicode="&#xde;" horiz-adv-x="1296" d="M170 0v1458h285v-268h239q254 0 368 -110t114 -343q0 -455 -482 -454h-239v-283h-285zM455 537h225q129 0 168 38q43 39 43 162q0 119 -43 160q-39 39 -168 39h-225v-399z" />
<glyph unicode="&#xdf;" horiz-adv-x="1228" d="M150 0v1047q0 424 434 423q410 0 409 -378q0 -88 -36.5 -159t-88.5 -102q250 -129 250 -387q0 -463 -403 -462h-107v223h54q86 0 137 62.5t51 181.5q0 59 -20.5 106t-54.5 80t-78 50t-93 17v209q39 -4 68.5 30t44 81t9.5 97t-38 79q-37 41 -121 41q-82 0 -116.5 -54.5 t-34.5 -158.5v-1026h-266z" />
<glyph unicode="&#xe0;" horiz-adv-x="1093" d="M18 543v92t2 63q2 51 9.5 118t23.5 112t45 93t70 77q90 63 240 63h280l266 17v-1178h-178l-82 141l-284 -151q-238 0 -320 170q-20 41 -34.5 87t-22.5 93q-8 49 -11.5 99t-3.5 104zM231 1602h281l78 -218q8 -23 8 -45q0 -53 -57 -53q-88 0 -158 98zM285 578 q0 -86 9 -144.5t32.5 -95.5t61.5 -53.5t97 -16.5l203 105v549h-203q-113 0 -156.5 -85t-43.5 -259z" />
<glyph unicode="&#xe1;" horiz-adv-x="1093" d="M18 543v92t2 63q2 51 9.5 118t23.5 112t45 93t70 77q90 63 240 63h280l266 17v-1178h-178l-82 141l-284 -151q-238 0 -320 170q-20 41 -34.5 87t-22.5 93q-8 49 -11.5 99t-3.5 104zM285 578q0 -86 9 -144.5t32.5 -95.5t61.5 -53.5t97 -16.5l203 105v549h-203 q-113 0 -156.5 -85t-43.5 -259zM457 1339q0 23 8 45l78 218h280l-151 -218q-72 -98 -158 -98q-57 0 -57 53z" />
<glyph unicode="&#xe2;" horiz-adv-x="1093" d="M18 543v92t2 63q2 51 9.5 118t23.5 112t45 93t70 77q90 63 240 63h280l266 17v-1178h-178l-82 141l-284 -151q-238 0 -320 170q-20 41 -34.5 87t-22.5 93q-8 49 -11.5 99t-3.5 104zM225 1328.5q2 17.5 11 27.5l192 248h213l193 -248q6 -10 8 -27.5t-3 -33t-18.5 -27 t-36.5 -11.5q-78 0 -157 99l-92 114l-93 -114q-80 -98 -157 -99q-23 0 -36 11.5t-19.5 27t-4.5 33zM285 578q0 -86 9 -144.5t32.5 -95.5t61.5 -53.5t97 -16.5l203 105v549h-203q-113 0 -156.5 -85t-43.5 -259z" />
<glyph unicode="&#xe3;" horiz-adv-x="1093" d="M18 543v92t2 63q2 51 9.5 118t23.5 112t45 93t70 77q90 63 240 63h280l266 17v-1178h-178l-82 141l-284 -151q-238 0 -320 170q-20 41 -34.5 87t-22.5 93q-8 49 -11.5 99t-3.5 104zM164 1401q68 68 119 94.5t120 26.5q70 0 142 -43q74 -43 144.5 -43t119.5 47l94 -103 q-121 -121 -231 -120q-80 0 -150 40q-72 41 -136 42t-120 -48zM285 578q0 -86 9 -144.5t32.5 -95.5t61.5 -53.5t97 -16.5l203 105v549h-203q-113 0 -156.5 -85t-43.5 -259z" />
<glyph unicode="&#xe4;" horiz-adv-x="1093" d="M18 543v92t2 63q2 51 9.5 118t23.5 112t45 93t70 77q90 63 240 63h280l266 17v-1178h-178l-82 141l-284 -151q-238 0 -320 170q-20 41 -34.5 87t-22.5 93q-8 49 -11.5 99t-3.5 104zM166 1421q0 80 35 109q39 29 102 29q65 0 100 -29q37 -29 37 -109q0 -82 -37 -108 q-35 -29 -100 -29q-63 0 -102 29q-35 29 -35 108zM285 578q0 -86 9 -144.5t32.5 -95.5t61.5 -53.5t97 -16.5l203 105v549h-203q-113 0 -156.5 -85t-43.5 -259zM629 1421q0 80 35 109q39 29 102 29q65 0 100 -29q37 -29 37 -109q0 -82 -37 -108q-35 -29 -100 -29 q-63 0 -102 29q-35 29 -35 108z" />
<glyph unicode="&#xe5;" horiz-adv-x="1093" d="M18 543v92t2 63q2 51 9.5 118t23.5 112t45 93t70 77q90 63 240 63h280l266 17v-1178h-178l-82 141l-284 -151q-238 0 -320 170q-20 41 -34.5 87t-22.5 93q-8 49 -11.5 99t-3.5 104zM266 1464q1 269 269 269t268 -269q0 -268 -268 -268t-269 268zM285 578q0 -86 9 -144.5 t32.5 -95.5t61.5 -53.5t97 -16.5l203 105v549h-203q-113 0 -156.5 -85t-43.5 -259zM416 1464q0 -74 30 -98q14 -12 39 -17.5t49.5 -5.5t48.5 5.5t40 17.5q31 25 30 98q0 74 -30 97q-29 23 -88 22q-57 0 -91 -22q-29 -23 -28 -97z" />
<glyph unicode="&#xe6;" horiz-adv-x="1748" d="M63 326q0 156 95 268q96 115 282 115h291q2 6 2 28v47q0 182 -198 183q-125 0 -177.5 -42t-52.5 -143h-221q0 199 113 299q113 104 338 105q223 0 346 -111q125 109 354 109q444 0 444 -494q0 -27 -1 -68.5t-3 -99.5h-676q0 -176 48 -254q45 -74 198 -73q106 0 149.5 51 t43.5 162h239q0 -117 -29.5 -199t-85 -134t-134 -76t-177.5 -24q-174 0 -280.5 44t-161.5 151l-373 -178q-160 0 -266 88q-106 92 -107 246zM311 346q0 -63 40 -101t116 -38l266 139v172h-252q-41 0 -72.5 -15.5t-53 -40t-33 -55t-11.5 -61.5zM999 705h439q0 162 -47 215 t-160 53q-55 0 -98 -12.5t-73 -43t-45.5 -82t-15.5 -130.5z" />
<glyph unicode="&#xe7;" horiz-adv-x="987" d="M63 578q0 350 121 477q53 57 145.5 94t205.5 37q223 0 336.5 -109.5t113.5 -308.5h-242q0 92 -45 135t-163 43q-104 0 -158 -53q-39 -39 -45 -150q-2 -16 -2 -41.5v-58.5v-168q0 -88 8 -110q4 -12 8 -25.5t8 -28.5q10 -29 24.5 -43t35.5 -30q39 -27 114 -27q78 0 121 12 q47 16 64 47q20 33 26 65t9 93l241 2l-8 -119q0 -8 -1 -19t-3 -28q-4 -33 -9 -48t-14 -40q-16 -43 -47 -74q-100 -102 -307 -125l-16 -43q98 -29 98 -112q0 -88 -57.5 -138.5t-180.5 -50.5q-14 0 -37.5 2.5t-58.5 6.5l43 104q37 -6 72 -6q84 0 84 63q0 70 -119 70l41 104 q-94 10 -165 41t-120 84q-121 127 -121 476z" />
<glyph unicode="&#xe8;" horiz-adv-x="1122" d="M80 643q0 274 124 407.5t382 133.5q444 0 444 -494q0 -27 -1 -68.5t-3 -99.5h-676q0 -176 47 -254q45 -74 199 -73q106 0 149 51t43 162h240q0 -117 -29.5 -199t-85 -134t-134.5 -76t-177 -24q-193 0 -302.5 55.5t-164.5 196.5q-55 143 -55 416zM264 1602h281l78 -218 q8 -23 8 -45q0 -53 -58 -53q-88 0 -157 98zM350 705h438q0 162 -47 215t-159 53q-55 0 -98.5 -12.5t-73 -43t-45 -82t-15.5 -130.5z" />
<glyph unicode="&#xe9;" horiz-adv-x="1122" d="M80 643q0 274 124 407.5t382 133.5q444 0 444 -494q0 -27 -1 -68.5t-3 -99.5h-676q0 -176 47 -254q45 -74 199 -73q106 0 149 51t43 162h240q0 -117 -29.5 -199t-85 -134t-134.5 -76t-177 -24q-193 0 -302.5 55.5t-164.5 196.5q-55 143 -55 416zM350 705h438 q0 162 -47 215t-159 53q-55 0 -98.5 -12.5t-73 -43t-45 -82t-15.5 -130.5zM510 1339q0 23 8 45l78 218h281l-152 -218q-72 -98 -158 -98q-57 0 -57 53z" />
<glyph unicode="&#xea;" horiz-adv-x="1122" d="M80 643q0 274 124 407.5t382 133.5q444 0 444 -494q0 -27 -1 -68.5t-3 -99.5h-676q0 -176 47 -254q45 -74 199 -73q106 0 149 51t43 162h240q0 -117 -29.5 -199t-85 -134t-134.5 -76t-177 -24q-193 0 -302.5 55.5t-164.5 196.5q-55 143 -55 416zM258 1328.5 q2 17.5 10 27.5l193 248h213l192 -248q6 -10 8.5 -27.5t-3 -33t-18.5 -27t-36 -11.5q-78 0 -158 99l-92 114l-92 -114q-80 -98 -158 -99q-23 0 -36 11.5t-19 27t-4 33zM350 705h438q0 162 -47 215t-159 53q-55 0 -98.5 -12.5t-73 -43t-45 -82t-15.5 -130.5z" />
<glyph unicode="&#xeb;" horiz-adv-x="1122" d="M80 643q0 274 124 407.5t382 133.5q444 0 444 -494q0 -27 -1 -68.5t-3 -99.5h-676q0 -176 47 -254q45 -74 199 -73q106 0 149 51t43 162h240q0 -117 -29.5 -199t-85 -134t-134.5 -76t-177 -24q-193 0 -302.5 55.5t-164.5 196.5q-55 143 -55 416zM199 1421q0 80 34 109 q39 29 103 29q65 0 100 -29q37 -29 37 -109q0 -82 -37 -108q-35 -29 -100 -29q-63 0 -103 29q-35 29 -34 108zM350 705h438q0 162 -47 215t-159 53q-55 0 -98.5 -12.5t-73 -43t-45 -82t-15.5 -130.5zM662 1421q0 80 34 109q39 29 103 29q65 0 100 -29q37 -29 37 -109 q0 -82 -37 -108q-35 -29 -100 -29q-63 0 -103 29q-35 29 -34 108z" />
<glyph unicode="&#xec;" horiz-adv-x="563" d="M35 1602h280l78 -218q8 -23 8 -45q0 -53 -57 -53q-88 0 -158 98zM150 0v1067h266v-1067h-266z" />
<glyph unicode="&#xed;" horiz-adv-x="563" d="M150 0v1067h266v-1067h-266zM176 1339q0 23 8 45l78 218h281l-152 -218q-72 -98 -158 -98q-57 0 -57 53z" />
<glyph unicode="&#xee;" horiz-adv-x="563" d="M-20.5 1328.5q2.5 17.5 10.5 27.5l190 248h213l193 -248q6 -10 8 -27.5t-3 -33t-18.5 -27t-35.5 -11.5q-78 0 -158 99l-92 114l-92 -114q-80 -98 -158 -99q-23 0 -35 11.5t-18.5 27t-4 33zM150 0v1067h266v-1067h-266z" />
<glyph unicode="&#xef;" horiz-adv-x="563" d="M-86 1421q0 80 37 109q35 29 98 29q66 0 101 -29q37 -29 36 -109q0 -82 -36 -108q-35 -29 -101 -29q-63 0 -98 29q-37 27 -37 108zM150 0v1067h266v-1067h-266zM375 1421q0 80 35 109q39 29 102 29q65 0 100 -29q37 -29 37 -109q0 -82 -37 -108q-35 -29 -100 -29 q-63 0 -102 29q-35 29 -35 108z" />
<glyph unicode="&#xf0;" horiz-adv-x="1124" d="M63 516v88t3 60q2 47 9 110.5t23 106.5q16 45 45 93t70 79q92 68 240 67h280q-8 63 -35 135l-188 -63v156l129 43q-14 27 -37.5 63.5t-56.5 85.5h266l47 -74l166 56v-156l-100 -35q76 -197 75 -450v-658q-203 -233 -469 -233q-295 0 -385 157q-51 86 -65 175 q-10 47 -13.5 95t-3.5 99zM330 555q0 -84 9 -142.5t32.5 -95t61.5 -53t97 -16.5q10 2 37 4t35 2q20 4 43 10t39 12q25 10 49 35v570h-203q-201 0 -200 -326z" />
<glyph unicode="&#xf1;" horiz-adv-x="1173" d="M129 0v1169h199l61 -139l328 152q135 0 237 -103q102 -102 103 -295v-784h-266v748q0 100 -41 137t-115 37l-240 -101v-821h-266zM223 1417q68 68 119 94.5t121 26.5t141 -43q74 -43 144.5 -43t119.5 47l95 -102q-121 -121 -232 -121q-80 0 -149 41q-72 41 -136.5 42 t-119.5 -48z" />
<glyph unicode="&#xf2;" d="M66 590q0 272 94 424q106 172 389 172t391 -152q111 -151 111 -444q0 -379 -144 -508q-117 -109 -350 -109q-291 0 -397 170q-94 156 -94 447zM246 1602h280l78 -218q8 -23 8 -45q0 -53 -57 -53q-88 0 -158 98zM332 537q0 -131 35 -224q41 -102 190 -102q121 0 178 63 q41 47 47 158q2 16 2 40v56v107q0 215 -51 258q-59 53 -186 53t-171 -74.5t-44 -228.5v-106z" />
<glyph unicode="&#xf3;" d="M68 590q0 268 96 424q106 172 387 172q283 0 391 -152q111 -151 111 -444q0 -379 -144 -508q-117 -109 -350 -109q-295 0 -395 170q-96 158 -96 447zM334 537q0 -131 35 -224q41 -102 190 -102q121 0 178 63q41 47 47 158q2 16 2 40v56v107q0 215 -49 258q-63 53 -188 53 q-127 0 -171 -74.5t-44 -228.5v-106zM500 1339q0 23 8 45l78 218h280l-151 -218q-72 -98 -158 -98q-57 0 -57 53z" />
<glyph unicode="&#xf4;" d="M61 590q0 272 95 424q106 172 389 172t391 -152q111 -151 111 -444q0 -379 -144 -508q-117 -109 -350 -109q-291 0 -397 170q-94 156 -95 447zM248 1328.5q2 17.5 10 27.5l193 248h213l192 -248q6 -10 8 -27.5t-3 -33t-18.5 -27t-35.5 -11.5q-78 0 -158 99l-92 114 l-92 -114q-80 -98 -158 -99q-23 0 -36 11.5t-19 27t-4 33zM328 537q0 -131 34 -224q41 -102 191 -102q121 0 178 63q41 47 47 158q2 16 2 40v56v107q0 215 -51 258q-59 53 -186 53t-171 -74.5t-44 -228.5v-106z" />
<glyph unicode="&#xf5;" d="M66 590q0 272 94 424q106 172 389 172t391 -152q111 -151 111 -444q0 -379 -144 -508q-117 -109 -350 -109q-291 0 -397 170q-94 156 -94 447zM186 1421q68 68 119 94.5t121 26.5t141 -43q74 -43 144.5 -43t119.5 47l95 -102q-121 -121 -232 -121q-80 0 -149 41 q-72 41 -136.5 42t-119.5 -48zM332 537q0 -131 35 -224q41 -102 190 -102q121 0 178 63q41 47 47 158q2 16 2 40v56v107q0 215 -51 258q-59 53 -186 53t-171 -74.5t-44 -228.5v-106z" />
<glyph unicode="&#xf6;" d="M66 590q0 272 94 424q106 172 389 172t391 -152q111 -151 111 -444q0 -379 -144 -508q-117 -109 -350 -109q-291 0 -397 170q-94 156 -94 447zM188 1421q0 80 35 109q39 29 103 29q65 0 100 -29q37 -29 37 -109q0 -82 -37 -108q-35 -29 -100 -29q-63 0 -103 29 q-35 29 -35 108zM332 537q0 -131 35 -224q41 -102 190 -102q121 0 178 63q41 47 47 158q2 16 2 40v56v107q0 215 -51 258q-59 53 -186 53t-171 -74.5t-44 -228.5v-106zM651 1421q0 80 35 109q39 29 102 29q66 0 101 -29q37 -29 37 -109q0 -82 -37 -108q-35 -29 -101 -29 q-63 0 -102 29q-35 29 -35 108z" />
<glyph unicode="&#xf7;" d="M94 461v248h924v-248h-924zM391 168q0 102 33 133q33 33 135 33t133 -33q33 -31 33 -133t-33 -135q-31 -33 -133 -33t-135 33t-33 135zM391 1018q0 102 33 133q33 33 135 33t133 -33q33 -31 33 -133t-33 -135q-31 -33 -133 -33t-135 33t-33 135z" />
<glyph unicode="&#xf8;" d="M63 590q0 268 97 424q106 172 395 172q121 0 207 -31l18 37h199l-64 -133q133 -139 134 -494q-1 -354 -144 -483q-117 -109 -350 -109q-78 0 -149 15l-37 -78h-199l70 145q-176 133 -177 535zM330 537q0 -156 32 -224l295 621q-43 12 -102 12q-68 0 -112 -18.5t-69.5 -56 t-34.5 -95t-9 -133.5v-106zM514 213q12 -2 59.5 -2t92.5 18q45 20 67.5 46t32.5 75q16 72 16 178v107q0 47 -1 80t-3 53z" />
<glyph unicode="&#xf9;" horiz-adv-x="1173" d="M96 385v784h266v-727q0 -195 156 -194l240 129v792h266v-1169h-199l-61 139l-328 -149q-141 0 -239 98q-100 100 -101 297zM276 1602h281l78 -218q8 -23 8 -45q0 -53 -57 -53q-88 0 -158 98z" />
<glyph unicode="&#xfa;" horiz-adv-x="1173" d="M96 385v784h266v-727q0 -195 156 -194l240 129v792h266v-1169h-199l-61 139l-328 -149q-141 0 -239 98q-100 100 -101 297zM522 1339q0 23 8 45l78 218h281l-152 -218q-72 -98 -157 -98q-57 0 -58 53z" />
<glyph unicode="&#xfb;" horiz-adv-x="1173" d="M96 385v784h266v-727q0 -195 156 -194l240 129v792h266v-1169h-199l-61 139l-328 -149q-141 0 -239 98q-100 100 -101 297zM270 1328.5q2 17.5 11 27.5l192 248h213l193 -248q6 -10 8 -27.5t-3 -33t-18.5 -27t-36.5 -11.5q-78 0 -157 99l-92 114l-93 -114 q-80 -98 -157 -99q-23 0 -36 11.5t-19.5 27t-4.5 33z" />
<glyph unicode="&#xfc;" horiz-adv-x="1173" d="M96 385v784h266v-727q0 -195 156 -194l240 129v792h266v-1169h-199l-61 139l-328 -149q-141 0 -239 98q-100 100 -101 297zM211 1421q0 80 35 109q39 29 102 29q66 0 101 -29q37 -29 36 -109q0 -82 -36 -108q-35 -29 -101 -29q-63 0 -102 29q-35 29 -35 108zM674 1421 q0 80 35 109q39 29 102 29q65 0 100 -29q37 -29 37 -109q0 -82 -37 -108q-35 -29 -100 -29q-63 0 -102 29q-35 29 -35 108z" />
<glyph unicode="&#xfd;" horiz-adv-x="1101" d="M49 1169h281l209 -813l225 813h280l-444 -1298q-31 -88 -80 -137q-82 -82 -229 -82h-125v239h82q57 0 84.5 19.5t48.5 77.5l20 55zM483 1339q0 23 9 45l77 218h281l-152 -218q-72 -98 -157 -98q-57 0 -58 53z" />
<glyph unicode="&#xfe;" horiz-adv-x="1150" d="M150 -389v1927h266v-565q94 106 258 106q213 0 309 -82q80 -70 94 -260q6 -78 6 -188q0 -57 -1 -100t-3 -76q-2 -31 -6 -64t-10 -67q-12 -70 -40 -111t-73 -78q-78 -63 -276 -63l-258 145v-524h-266zM416 350l180 -102q139 0 180 61q41 66 41 232q0 168 -41 233 q-41 66 -180 66h-180v-490z" />
<glyph unicode="&#xff;" horiz-adv-x="1011" d="M8 1169h281l209 -813l225 813h281l-445 -1298q-31 -88 -80 -137q-82 -82 -229 -82h-125v239h82q57 0 84.5 19.5t48.5 77.5l20 55zM131 1421q0 80 35 109q39 29 102 29q66 0 101 -29q37 -29 37 -109q0 -82 -37 -108q-35 -29 -101 -29q-63 0 -102 29q-35 29 -35 108z M594 1421q0 80 35 109q39 29 102 29q65 0 100 -29q37 -29 37 -109q0 -82 -37 -108q-35 -29 -100 -29q-63 0 -102 29q-35 29 -35 108z" />
<glyph unicode="&#x152;" horiz-adv-x="1978" d="M80 690v78q0 178 32.5 309t103.5 215t180.5 125t262.5 41h1254v-254h-676v-342h473l-41 -254h-432v-202q0 -86 39 -119t141 -33h496v-254h-496q-258 0 -364 102q-133 -113 -394 -112q-309 0 -444 162t-135 538zM365 692q0 -111 8 -183.5t24 -113.5q57 -154 262 -153 q178 0 238 102q37 70 47 143q4 45 7 97.5t3 113.5v99q0 258 -69 336q-72 84 -226 84q-156 0 -229 -87q-53 -66 -61 -221q-2 -27 -3 -61.5t-1 -79.5v-76z" />
<glyph unicode="&#x153;" horiz-adv-x="1804" d="M63 590q0 268 97 424q106 172 395 172q240 0 358 -125q123 123 371 123q444 0 445 -494q0 -27 -1.5 -68.5t-3.5 -99.5h-675q0 -176 47 -254q45 -74 198 -73q106 0 149.5 51t43.5 162h239q0 -117 -29.5 -199t-85 -134t-134.5 -76t-177 -24q-274 0 -387 115 q-111 -117 -358 -117q-295 0 -395 170q-96 158 -97 447zM330 537q0 -131 35 -224q41 -102 190 -102q121 0 178 63q41 47 47 158q2 16 2 40v56v107q0 215 -49 258q-63 53 -188 53q-127 0 -171 -74.5t-44 -228.5v-106zM1049 705h438q0 162 -47 215t-160 53q-55 0 -98 -12.5 t-73 -43t-45 -82t-15 -130.5z" />
<glyph unicode="&#x178;" horiz-adv-x="1171" d="M6 1458h309l273 -588l268 588h309l-438 -860v-598h-283v598zM215 1784q0 80 35 108q39 29 102 29q66 0 101 -29q37 -29 36 -108q0 -82 -36 -109q-35 -29 -101 -28q-63 0 -102 28q-35 29 -35 109zM678 1784q0 80 35 108q39 29 102 29q65 0 100 -29q37 -29 37 -108 q0 -82 -37 -109q-35 -29 -100 -28q-63 0 -102 28q-35 29 -35 109z" />
<glyph unicode="&#x2c6;" horiz-adv-x="1024" d="M203 1307.5q2 17.5 10 27.5l193 248h212l193 -248q6 -10 8 -27.5t-3 -32.5t-18.5 -26.5t-35.5 -11.5q-78 0 -158 98l-92 115l-92 -115q-80 -98 -158 -98q-23 0 -36 11.5t-19 26.5t-4 32.5z" />
<glyph unicode="&#x2dc;" horiz-adv-x="1024" d="M141 1401q68 68 119 94.5t121 26.5t141 -43q74 -43 144.5 -43t119.5 47l95 -103q-121 -121 -232 -120q-80 0 -149 40q-72 41 -136.5 42t-119.5 -48z" />
<glyph unicode="&#x2000;" horiz-adv-x="1039" />
<glyph unicode="&#x2001;" horiz-adv-x="2079" />
<glyph unicode="&#x2002;" horiz-adv-x="1039" />
<glyph unicode="&#x2003;" horiz-adv-x="2079" />
<glyph unicode="&#x2004;" horiz-adv-x="693" />
<glyph unicode="&#x2005;" horiz-adv-x="519" />
<glyph unicode="&#x2006;" horiz-adv-x="346" />
<glyph unicode="&#x2007;" horiz-adv-x="346" />
<glyph unicode="&#x2008;" horiz-adv-x="259" />
<glyph unicode="&#x2009;" horiz-adv-x="415" />
<glyph unicode="&#x200a;" horiz-adv-x="115" />
<glyph unicode="&#x2010;" horiz-adv-x="872" d="M121 461v248h631v-248h-631z" />
<glyph unicode="&#x2011;" horiz-adv-x="872" d="M121 461v248h631v-248h-631z" />
<glyph unicode="&#x2012;" horiz-adv-x="872" d="M121 461v248h631v-248h-631z" />
<glyph unicode="&#x2013;" d="M102 461v248h908v-248h-908z" />
<glyph unicode="&#x2014;" horiz-adv-x="2103" d="M121 463v256h1861v-256h-1861z" />
<glyph unicode="&#x2018;" horiz-adv-x="559" d="M137 1350v106q0 72 39 135q41 68 86 82v-131q0 -35 12.5 -50t61.5 -15q25 0 42 -4.5t28.5 -17.5t16.5 -39.5t5 -69.5t-6 -71t-21.5 -43t-44 -21.5t-73.5 -6.5t-74 6.5t-44 21.5t-21.5 44t-6.5 74z" />
<glyph unicode="&#x2019;" horiz-adv-x="559" d="M137 1319q0 43 6.5 71.5t21.5 44t44 21.5t74 6t73.5 -6t44 -21.5t21.5 -44t6 -73.5v-107q0 -72 -41 -137q-41 -66 -84 -80v131q0 35 -12 50.5t-62 15.5q-49 0 -70.5 21.5t-21.5 107.5z" />
<glyph unicode="&#x201a;" horiz-adv-x="555" d="M137 113q0 43 6.5 71.5t21.5 44t44 21.5t74 6t73.5 -6t44 -21.5t21.5 -44t6 -73.5v-107q0 -68 -41 -133q-43 -68 -84 -82v131q0 35 -12 50.5t-62 15.5q-49 0 -70.5 21.5t-21.5 105.5z" />
<glyph unicode="&#x201c;" horiz-adv-x="987" d="M137 1350v106q0 72 39 135q41 68 86 82v-131q0 -35 12.5 -50t61.5 -15q25 0 42 -4.5t28.5 -17.5t16.5 -39.5t5 -69.5t-6 -71t-21.5 -43t-44 -21.5t-73.5 -6.5t-74 6.5t-44 21.5t-21.5 44t-6.5 74zM575 1350v106q0 72 39 135q41 68 86 82v-131q0 -35 12.5 -50t61.5 -15 q25 0 42.5 -4.5t28.5 -17.5t16 -39.5t5 -69.5t-6 -71t-21.5 -43t-44 -21.5t-73.5 -6.5t-74 6.5t-44 21.5t-21.5 44t-6.5 74z" />
<glyph unicode="&#x201d;" horiz-adv-x="987" d="M137 1319q0 43 6.5 71.5t21.5 44t44 21.5t74 6t73.5 -6t44 -21.5t21.5 -44t6 -73.5v-107q0 -72 -41 -137q-41 -66 -84 -80v131q0 35 -12 50.5t-62 15.5q-49 0 -70.5 21.5t-21.5 107.5zM575 1319q0 43 6.5 71.5t21.5 44t44 21.5t74 6t73.5 -6t44 -21.5t21.5 -44t6 -73.5 v-107q0 -72 -41 -137q-41 -66 -84 -80v131q0 35 -12 50.5t-61 15.5t-71 21.5t-22 107.5z" />
<glyph unicode="&#x201e;" horiz-adv-x="993" d="M137 113q0 43 6.5 71.5t21.5 44t44 21.5t74 6t73.5 -6t44 -21.5t21.5 -44t6 -73.5v-107q0 -68 -41 -133q-43 -68 -84 -82v131q0 35 -12 50.5t-62 15.5q-49 0 -70.5 21.5t-21.5 105.5zM575 113q0 43 6.5 71.5t21.5 44t44 21.5t74 6t73.5 -6t44 -21.5t21.5 -44t6 -73.5 v-107q0 -68 -41 -133q-43 -68 -84 -82v131q0 35 -12 50.5t-61 15.5t-71 21.5t-22 105.5z" />
<glyph unicode="&#x2022;" horiz-adv-x="1009" d="M170 684q0 174 76 252q76 82 258 82q180 0 256 -82q78 -82 78 -252t-78 -254q-78 -80 -256 -80q-182 0 -258 80q-76 82 -76 254z" />
<glyph unicode="&#x2026;" horiz-adv-x="1812" d="M129 141q0 102 33 133q33 33 135 33t133 -33q33 -31 33 -133t-33 -135q-31 -31 -133 -31t-135 31q-33 33 -33 135zM662 141q0 102 32 133q33 33 135 33q103 0 134 -33q33 -31 32 -133q0 -102 -32 -135q-31 -31 -134 -31q-102 0 -135 31q-33 33 -32 135zM1190 141 q0 102 33 133q33 33 135 33t133 -33q33 -31 33 -133t-33 -135q-31 -31 -133 -31t-135 31q-33 33 -33 135z" />
<glyph unicode="&#x202f;" horiz-adv-x="415" />
<glyph unicode="&#x2039;" horiz-adv-x="716" d="M137 567q0 33 21.5 73t68.5 81l394 350v-317l-234 -191l234 -190v-318l-398 355q-86 94 -86 157z" />
<glyph unicode="&#x203a;" horiz-adv-x="716" d="M137 55v318l234 190l-234 191v317l398 -354q86 -96 86 -160q0 -31 -21.5 -71t-69.5 -80z" />
<glyph unicode="&#x205f;" horiz-adv-x="519" />
<glyph unicode="&#x20ac;" horiz-adv-x="1110" d="M20 481v197h91v141h-91v197h101q29 227 141 340q115 115 332 114q219 0 346 -159q78 -96 90 -338h-264l-8 57q-4 23 -5 37t-3 23q-2 16 -12.5 47.5t-24.5 44.5q-41 35 -103 35q-172 0 -209 -201h170v-197h-184v-141h184v-197h-178q31 -240 217 -239q127 0 148 106 q12 55 12 123v58.5t2 35.5h264q-2 -57 -4 -97t-4 -65q-2 -23 -9 -54.5t-18 -72.5q-23 -78 -61 -129q-125 -158 -330 -157q-127 0 -216 29.5t-148.5 90t-91 152.5t-39.5 219h-95z" />
<glyph unicode="&#x2122;" horiz-adv-x="1892" d="M92 1284v174h645v-174h-225v-700h-195v700h-225zM872 584v874h195l213 -399q16 -33 35.5 -33t38.5 35l213 397h194v-874h-194v516l-164 -322q-29 -53 -88 -53q-55 0 -84 53l-164 322v-516h-195z" />
<glyph unicode="&#x25fc;" horiz-adv-x="1167" d="M0 0v1167h1167v-1167h-1167z" />
<glyph unicode="&#xfb01;" horiz-adv-x="1232" d="M51 922v202h111v113q0 125 80 215t231 90h172v-225h-125q-92 0 -92 -96v-97h655v-1124h-266v922h-389v-922h-266v922h-111zM799 1458q0 47 6 77t23.5 47t47 23.5t76.5 6.5q49 0 79 -6.5t47.5 -23.5t23.5 -47t6 -79q0 -47 -6 -76.5t-23.5 -47t-47.5 -23.5t-77 -6t-76.5 7 t-47 24.5t-24.5 47t-7 76.5z" />
<glyph unicode="&#xfb02;" horiz-adv-x="1224" d="M51 922v202h111v113q0 123 80 213t231 90h610v-1540h-266v1317h-297q-92 0 -92 -96v-97h217v-202h-217v-922h-266v922h-111z" />
<glyph unicode="&#xfb03;" horiz-adv-x="1865" d="M51 922v202h111v113q0 125 80 215t231 90h172v-225h-125q-92 0 -92 -96v-97h387v113q0 125 80 215t231 90h172v-225h-124q-92 0 -93 -96v-97h656v-1124h-267v922h-389v-922h-266v922h-387v-922h-266v922h-111zM1452 1458q0 47 6 77t23.5 47t47.5 23.5t79 6.5t78.5 -6.5 t46 -23.5t22.5 -47t6 -79q0 -47 -6 -76.5t-23.5 -47t-47 -23.5t-78.5 -6q-47 0 -77 7t-47.5 24.5t-23.5 47t-6 76.5z" />
<glyph unicode="&#xfb04;" horiz-adv-x="1855" d="M51 922v202h111v113q0 125 80 215t231 90h172v-225h-125q-92 0 -92 -96v-97h385v113q0 123 80 213t231 90h611v-1540h-267v1317h-297q-92 0 -92 -96v-97h217v-202h-217v-922h-266v922h-385v-922h-266v922h-111z" />
</font>
</defs>
</svg>
