<?xml version="1.0" standalone="no"?>
<!DOCTYPE svg PUBLIC "-//W3C//DTD SVG 1.1//EN" "http://www.w3.org/Graphics/SVG/1.1/DTD/svg11.dtd" >
<svg xmlns="http://www.w3.org/2000/svg" xmlns:xlink="http://www.w3.org/1999/xlink" version="1.1">
<metadata></metadata>
<defs>
<font id="utahregular" horiz-adv-x="1290" >
<font-face units-per-em="2048" ascent="1638" descent="-410" />
<missing-glyph horiz-adv-x="682" />
<glyph horiz-adv-x="0" />
<glyph unicode="&#xd;" horiz-adv-x="1022" />
<glyph horiz-adv-x="1022" />
<glyph horiz-adv-x="1022" />
<glyph unicode=" "  horiz-adv-x="682" />
<glyph unicode="&#x09;" horiz-adv-x="682" />
<glyph unicode="&#xa0;" horiz-adv-x="682" />
<glyph unicode="!" horiz-adv-x="682" d="M238 0v205h205v-205h-205zM238 1409h205l-31 -1083h-143z" />
<glyph unicode="&#x22;" horiz-adv-x="1024" d="M285 1409h164l-41 -495h-82zM571 1409h164l-41 -495h-82z" />
<glyph unicode="#" d="M133 440l25 133h180l57 300h-180l25 133h180l78 403h147l-78 -403h262l76 403h148l-78 -403h180l-25 -133h-180l-57 -300h180l-24 -133h-181l-84 -440h-147l86 440h-262l-84 -440h-148l84 440h-180zM485 573h265l55 300h-262z" />
<glyph unicode="$" d="M230 522h186q0 -54 13 -92t40.5 -62t70.5 -35t103 -11q106 0 164.5 42t58.5 117q0 43 -30.5 79.5t-81.5 49.5l-246 62q-138 36 -199 98q-59 62 -59 164q0 251 309 289v247h164v-251q159 -17 234 -88.5t75 -206.5h-186q0 162 -203 162q-100 0 -153.5 -34t-53.5 -97 q0 -93 115 -123l244 -62q134 -34 195.5 -98t61.5 -170q0 -68 -21.5 -122.5t-63.5 -95t-103.5 -65t-140.5 -31.5v-246h-164v244q-159 12 -244 98t-85 238z" />
<glyph unicode="%" horiz-adv-x="2048" d="M229 1022q0 189 86.5 288t253.5 99q168 0 254.5 -98t86.5 -287q0 -188 -87.5 -288.5t-253.5 -100.5t-253 99.5t-87 287.5zM385 1022q0 -72 10.5 -123.5t32.5 -84.5t57 -48.5t84 -15.5q50 0 85.5 15t58 48t33 84.5t10.5 124.5t-10.5 124.5t-33 84.5t-58 48t-85.5 15 t-84.5 -15t-57 -48t-32.5 -84.5t-10 -124.5zM572 -38l784 1470h107l-785 -1470h-106zM1135 385q0 189 86.5 287t253.5 98t253.5 -98t86.5 -287q0 -188 -86.5 -286.5t-253.5 -98.5t-253.5 98.5t-86.5 286.5zM1291 385q0 -74 10 -125.5t32.5 -84t57 -47.5t84.5 -15q49 0 84 15 t57.5 47.5t32.5 84t10 125.5q0 146 -42 208t-142 62t-142 -62t-42 -208z" />
<glyph unicode="&#x26;" horiz-adv-x="1554" d="M170 360q0 126 61.5 221t196.5 175l86 51l-65 80q-53 65 -77 122t-24 126q0 144 94 229q95 86 252 86q168 0 260 -79t92 -226q0 -45 -11.5 -87.5t-33.5 -80.5t-53 -70.5t-70 -56.5l-114 -70l296 -354q23 94 23 313h207q0 -302 -105 -465l230 -274h-227l-115 137 q-85 -85 -203 -130t-257 -45q-206 0 -325 104q-118 106 -118 294zM373 385q0 -135 74.5 -210t210.5 -75q196 0 319 152l-362 434l-64 -39q-98 -59 -139 -119q-39 -59 -39 -143zM541 1131q0 -80 61 -156l62 -76l114 70q37 23 58.5 66.5t21.5 95.5q0 88 -37.5 125.5 t-126.5 37.5q-153 0 -153 -163z" />
<glyph unicode="'" horiz-adv-x="682" d="M258 1409h164l-41 -495h-82z" />
<glyph unicode="(" horiz-adv-x="682" d="M176 651q0 479 245 819h123q-103 -183 -143 -364q-41 -184 -41 -455q0 -272 40 -447q40 -174 144 -365h-123q-128 184 -187 376q-58 192 -58 436z" />
<glyph unicode=")" horiz-adv-x="682" d="M135 -161q98 163 141 351t43 461q0 274 -43 462q-44 192 -141 357h123q245 -344 245 -819q0 -483 -245 -812h-123z" />
<glyph unicode="*" d="M270 1016v145l287 -22l-164 235l125 74l125 -262l121 262l123 -74l-162 -235l287 22v-145l-287 25l162 -236l-123 -72l-121 259l-125 -259l-125 72l164 236z" />
<glyph unicode="+" horiz-adv-x="2048" d="M447 512v123h514v516h123v-516h514v-123h-514v-512h-123v512h-514z" />
<glyph unicode="," horiz-adv-x="682" d="M145 -233l123 477h236l-225 -477h-134z" />
<glyph unicode="-" horiz-adv-x="682" d="M92 469v133h490v-133h-490z" />
<glyph unicode="." horiz-adv-x="682" d="M236 0v233h217v-233h-217z" />
<glyph unicode="/" horiz-adv-x="682" d="M90 -106l459 1515h106l-458 -1515h-107z" />
<glyph unicode="0" d="M86 705q0 350 148 547q148 198 409 198q257 0 405 -199t148 -546q0 -349 -147 -547q-147 -196 -406 -196q-264 0 -410 195q-147 196 -147 548zM270 705q0 -292 94.5 -441t278.5 -149q183 0 276 148.5t93 441.5q0 294 -93 442.5t-276 148.5q-185 0 -279 -148.5t-94 -442.5 z" />
<glyph unicode="1" d="M314 1006v186l329 217h162v-1409h-184v1211z" />
<glyph unicode="2" d="M148 0v162q189 135 368 299q90 82 159.5 155t119.5 138q135 175 135 309q0 109 -69 171t-193 62q-252 0 -252 -270h-207q0 204 118 313q118 111 335 111q209 0 331 -113q121 -112 121 -311q0 -79 -37.5 -164t-111.5 -180q-49 -63 -112 -129t-143 -138t-163.5 -136.5 t-171.5 -124.5h759v-154h-986z" />
<glyph unicode="3" d="M127 379h207q0 -62 21 -111t61 -83.5t97.5 -53t129.5 -18.5q148 0 237 72q89 74 89 194q0 268 -354 268h-76v154h76q73 0 131.5 16.5t99.5 48t62.5 77.5t21.5 104q0 117 -75.5 183t-211.5 66q-268 0 -268 -270h-207q0 193 127 308q128 116 336 116q227 0 361 -108 q133 -108 133 -295q0 -105 -58 -183.5t-170 -124.5q132 -44 195 -131.5t63 -228.5q0 -195 -137 -308q-137 -111 -375 -111q-254 0 -385 105.5t-131 313.5z" />
<glyph unicode="4" d="M86 335v166l637 908h204v-920h289v-154h-289v-335h-184v335h-657zM254 489h489v699z" />
<glyph unicode="5" d="M147 346h197q16 -231 276 -231q158 0 234 82t76 254q0 75 -17 134.5t-49.5 100.5t-79 62.5t-104.5 21.5q-239 0 -285 -207h-207v846h854v-154h-670v-475q41 63 129 104q87 40 181 40q206 0 319 -125t113 -348q0 -241 -126.5 -365t-367.5 -124q-215 0 -335.5 97 t-137.5 287z" />
<glyph unicode="6" d="M160 635q0 815 544 815q198 0 317 -102t126 -279h-197q0 106 -61.5 166.5t-167.5 60.5q-192 0 -283.5 -137.5t-91.5 -429.5q132 205 379 205q206 0 324 -130t118 -353q0 -234 -127 -362q-127 -127 -356 -127q-258 0 -391 170t-133 503zM377 451q0 -164 78.5 -250 t228.5 -86q147 0 223 85.5t76 250.5q0 157 -78.5 243t-220.5 86q-133 0 -220 -93t-87 -236z" />
<glyph unicode="7" d="M168 1255v154h967v-158l-555 -1251h-220l578 1255h-770z" />
<glyph unicode="8" d="M127 369q0 129 68 222t200 144q-109 42 -168 128t-59 206q0 174 127 277q128 104 348 104q217 0 344 -104q127 -103 127 -277q0 -116 -63 -207q-64 -93 -164 -127q124 -43 196 -141t72 -225q0 -190 -136 -299q-137 -108 -376 -108q-242 0 -379 107q-137 110 -137 300z M311 385q0 -133 84 -201.5t248 -68.5q162 0 245 68.5t83 201.5q0 124 -87 198q-86 73 -241 73q-156 0 -244 -73t-88 -198zM354 1053q0 -115 75.5 -178.5t213.5 -63.5q135 0 210 64t75 178q0 112 -77 177q-77 66 -208 66q-132 0 -211 -66q-78 -66 -78 -177z" />
<glyph unicode="9" d="M127 336h205q0 -221 248 -221q190 0 274 143q84 142 84 461q-62 -97 -157 -152t-201 -55q-199 0 -326 124t-127 319q0 226 129 360q129 135 344 135q253 0 388 -176q136 -175 136 -504q0 -808 -544 -808q-212 0 -333 99q-120 100 -120 275zM311 975q0 -140 78 -225 q78 -84 211 -84q128 0 212 87q85 86 85 222q0 321 -297 321q-133 0 -211 -88q-78 -87 -78 -233z" />
<glyph unicode=":" horiz-adv-x="682" d="M231 0v233h217v-233h-217zM231 742v233h217v-233h-217z" />
<glyph unicode=";" horiz-adv-x="682" d="M146 -233l123 477h235l-225 -477h-133zM238 742v233h215v-233h-215z" />
<glyph unicode="&#x3c;" horiz-adv-x="2048" d="M502 475v115l1044 475v-123l-901 -409l901 -410v-123z" />
<glyph unicode="=" horiz-adv-x="2048" d="M446 326v123h1151v-123h-1151zM446 698v123h1151v-123h-1151z" />
<glyph unicode="&#x3e;" horiz-adv-x="2048" d="M502 0v123l901 410l-901 409v123l1044 -475v-115z" />
<glyph unicode="?" horiz-adv-x="1063" d="M211 1247v154q129 49 279 49q193 0 306 -98q114 -98 114 -262q0 -92 -65 -199q-32 -53 -72.5 -96t-88.5 -80q-79 -61 -117 -118.5t-38 -108.5v-162h-164v166q0 67 27 120q14 27 38.5 57.5t61.5 63.5q110 100 165.5 181.5t55.5 148.5q0 95 -78 158q-77 63 -198 63 t-226 -37zM344 0v205h205v-205h-205z" />
<glyph unicode="@" horiz-adv-x="2048" d="M199 709q0 401 218 617q219 216 627 216q205 0 356 -47t250 -142.5t147 -240.5t48 -342q0 -272 -100 -424q-99 -153 -275 -153q-170 0 -223 149q-45 -78 -111 -113.5t-170 -35.5q-196 0 -307 134q-110 134 -110 372q0 237 115 370t317 133q45 0 86.5 -8.5t76.5 -24.5 t61.5 -39t41.5 -51v103h186v-752q0 -92 82 -92q87 0 147 108q60 109 60 269q0 387 -158 556q-157 169 -520 169q-337 0 -519 -191q-181 -190 -181 -540q0 -359 180.5 -542.5t532.5 -183.5q107 0 200.5 9t175.5 26v-107q-242 -30 -389 -30q-845 0 -845 828zM735 696 q0 -360 256 -360q132 0 194 87t62 273q0 185 -62.5 274t-193.5 89q-256 0 -256 -363z" />
<glyph unicode="A" horiz-adv-x="1518" d="M57 0l596 1409h205l596 -1409h-209l-147 358h-684l-148 -358h-209zM479 522h553l-274 687z" />
<glyph unicode="B" d="M180 0v1409h545q202 0 320 -97q118 -96 118 -261q0 -106 -60 -193q-59 -86 -161 -127q124 -35 195 -132t71 -230q0 -173 -119 -271t-333 -98h-576zM377 166h348q280 0 280 227q0 115 -73 178.5t-207 63.5h-348v-469zM377 801h348q114 0 182 62q68 63 68 168 q0 48 -17.5 87.5t-50 67t-79 42.5t-103.5 15h-348v-442z" />
<glyph unicode="C" horiz-adv-x="1442" d="M129 698q0 337 173 545q174 207 458 207q227 0 376 -113t179 -311h-205q-14 111 -113 179q-99 69 -237 69q-202 0 -314 -150q-112 -149 -112 -426q0 -273 111 -418t315 -145q149 0 243 65q93 64 107 179h205q-16 -195 -165 -308q-149 -111 -390 -111q-297 0 -464 195 q-167 197 -167 543z" />
<glyph unicode="D" horiz-adv-x="1479" d="M172 0v1409h484q361 0 541 -227q147 -186 147 -477q0 -294 -147 -478q-180 -227 -541 -227h-484zM369 166h287q483 0 483 539q0 538 -483 538h-287v-1077z" />
<glyph unicode="E" horiz-adv-x="1176" d="M164 0v1409h885v-166h-688v-442h657v-166h-657v-469h688v-166h-885z" />
<glyph unicode="F" horiz-adv-x="1139" d="M166 0v1409h865v-166h-668v-442h637v-166h-637v-635h-197z" />
<glyph unicode="G" horiz-adv-x="1518" d="M133 704q0 357 205 561q91 91 212 138t261 47q222 0 370 -115q150 -115 175 -309h-205q-20 116 -110 183q-89 67 -230 67q-221 0 -347 -151q-126 -150 -126 -421q0 -571 514 -571q145 0 307 49v391h-317v166h514v-680q-260 -99 -504 -99q-344 0 -531 193 q-188 194 -188 551z" />
<glyph unicode="H" horiz-adv-x="1479" d="M172 0v1409h197v-588h737v588h197v-1409h-197v655h-737v-655h-197z" />
<glyph unicode="I" horiz-adv-x="569" d="M184 0v1409h197v-1409h-197z" />
<glyph unicode="J" horiz-adv-x="1139" d="M61 369h207q0 -123 57.5 -179.5t178.5 -56.5q137 0 206.5 70t69.5 207v999h197v-999q0 -209 -123 -330q-123 -120 -330 -120q-463 0 -463 409z" />
<glyph unicode="K" horiz-adv-x="1366" d="M193 0v1409h197v-633l584 633h237l-600 -637l682 -772h-256l-647 746v-746h-197z" />
<glyph unicode="L" horiz-adv-x="1100" d="M168 0v1409h197v-1243h606v-166h-803z" />
<glyph unicode="M" horiz-adv-x="1858" d="M176 0v1409h330l424 -1155l420 1155h330v-1409h-197v1264l-463 -1264h-184l-463 1264v-1264h-197z" />
<glyph unicode="N" horiz-adv-x="1479" d="M172 0v1409h279l655 -1194v1194h197v-1409h-279l-655 1196v-1196h-197z" />
<glyph unicode="O" horiz-adv-x="1554" d="M127 705q0 140 38 269t109 229q175 247 503 247q321 0 498 -247q71 -100 109 -229t38 -269q0 -141 -38 -270t-109 -229q-176 -246 -498 -246q-327 0 -503 246q-72 100 -109.5 229t-37.5 270zM332 705q0 -138 29 -244.5t85.5 -179.5t139.5 -110.5t191 -37.5q212 0 326 148 t114 424q0 273 -114 422t-326 149q-108 0 -191 -37.5t-139.5 -110.5t-85.5 -179t-29 -244z" />
<glyph unicode="P" horiz-adv-x="1214" d="M164 0v1409h536q223 0 342 -104t119 -299q0 -192 -120 -297t-341 -105h-339v-604h-197zM361 770h327q64 0 115.5 16t87 46.5t54.5 74.5t19 99q0 112 -73 174.5t-203 62.5h-327v-473z" />
<glyph unicode="Q" horiz-adv-x="1593" d="M127 705q0 363 205 567q87 87 201 132.5t242 45.5t241.5 -45.5t200.5 -132.5q205 -204 205 -567q0 -340 -205 -539h320v-166h-420q-19 0 -59.5 -4.5t-103.5 -14.5q-125 -21 -179 -21q-128 0 -242 45t-201 132q-205 204 -205 568zM332 705q0 -272 116 -422 q115 -150 327 -150q209 0 325 150q117 151 117 422q0 270 -116 421q-116 150 -326 150t-327 -150q-116 -151 -116 -421z" />
<glyph unicode="R" horiz-adv-x="1327" d="M174 0v1409h598q200 0 310 -98t110 -274q0 -253 -232 -332q72 -23 119 -86t58 -154l37 -293q5 -43 20.5 -86t38.5 -86h-215q-14 28 -23.5 64.5t-15.5 83.5l-39 293q-12 88 -62.5 136t-134.5 48h-372v-625h-197zM371 791h387q115 0 176 58t61 167q0 111 -61 169t-176 58 h-387v-452z" />
<glyph unicode="S" horiz-adv-x="1327" d="M117 410h207q0 -125 99 -201q98 -76 249 -76q148 0 249 74t101 180q0 145 -176 189l-412 102q-145 36 -221 125.5t-76 222.5q0 176 130 293q146 131 405 131q235 0 373 -114t141 -310h-207q0 121 -84.5 185.5t-237.5 64.5q-139 0 -227 -67t-88 -172q0 -75 44 -116 q43 -40 153 -67l377 -94q151 -38 231 -128.5t80 -230.5q0 -202 -151 -322q-152 -119 -404 -119q-256 0 -402 116q-144 117 -153 334z" />
<glyph unicode="T" d="M78 1243v166h1131v-166h-467v-1243h-197v1243h-467z" />
<glyph unicode="U" horiz-adv-x="1479" d="M170 492v917h197v-917q0 -86 25 -152.5t72.5 -112.5t116.5 -70t156 -24q174 0 269 94q97 94 97 265v917h197v-917q0 -243 -154 -388q-151 -144 -409 -144q-260 0 -413 144q-154 145 -154 388z" />
<glyph unicode="V" horiz-adv-x="1479" d="M63 1409h205l471 -1235l471 1235h205l-571 -1409h-209z" />
<glyph unicode="W" horiz-adv-x="2048" d="M55 1409h203l313 -1175l351 1175h204l349 -1182l333 1182h181l-412 -1409h-207l-346 1176l-350 -1176h-207z" />
<glyph unicode="X" horiz-adv-x="1479" d="M59 0l555 739l-503 670h243l398 -547l395 547h217l-504 -670l555 -739h-241l-451 614l-447 -614h-217z" />
<glyph unicode="Y" horiz-adv-x="1403" d="M63 1409h230l408 -670l407 670h230l-539 -835v-574h-197v574z" />
<glyph unicode="Z" horiz-adv-x="1251" d="M90 0v172l821 1071h-800v166h1028v-176l-817 -1067h847v-166h-1079z" />
<glyph unicode="[" horiz-adv-x="682" d="M176 -161v1631h409v-94h-225v-1443h225v-94h-409z" />
<glyph unicode="\" horiz-adv-x="682" d="M59 1409h107l457 -1515h-107z" />
<glyph unicode="]" horiz-adv-x="682" d="M94 -67h225v1443h-225v94h409v-1631h-409v94z" />
<glyph unicode="^" horiz-adv-x="1024" d="M199 961l288 411h50l290 -411l-24 -23l-291 230l-291 -230z" />
<glyph unicode="_" horiz-adv-x="1024" d="M0 -407h1024v-104h-1024v104z" />
<glyph unicode="`" d="M408 1376h286l123 -266h-164z" />
<glyph unicode="a" horiz-adv-x="1100" d="M96 264q0 172 135.5 256t417.5 84h115v51q0 208 -209 208q-114 0 -162.5 -39t-48.5 -127h-186q0 151 103 230t298 79q182 0 286 -89q105 -89 105 -245v-552q0 -54 31 -120h-190q-27 61 -27 129q-28 -42 -61.5 -72.5t-74.5 -49.5t-91 -28t-111 -9q-147 0 -239 80 q-91 82 -91 214zM282 278q0 -39 13 -72t37.5 -56.5t58.5 -36.5t76 -13q146 0 221.5 95t75.5 276h-74q-224 0 -316 -43q-92 -44 -92 -150z" />
<glyph unicode="b" horiz-adv-x="1176" d="M143 0v1409h186v-567q51 74 137 119q87 45 175 45q204 0 321 -138q117 -137 117 -380q0 -244 -117 -382q-115 -136 -321 -136q-85 0 -179 47q-92 47 -133 116v-133h-186zM329 488q0 -177 74 -277q75 -99 209 -99q281 0 281 376q0 375 -281 375q-136 0 -209.5 -97.5 t-73.5 -277.5z" />
<glyph unicode="c" horiz-adv-x="1100" d="M96 488q0 247 126 382q126 136 355 136q187 0 304 -102q117 -100 120 -259h-186q-3 97 -68 157q-64 61 -170 61q-146 0 -220.5 -94.5t-74.5 -280.5q0 -376 295 -376q106 0 172 63q66 64 66 161h186q0 -164 -115 -266q-115 -100 -309 -100q-228 0 -354 135 q-127 136 -127 383z" />
<glyph unicode="d" horiz-adv-x="1176" d="M92 488q0 244 117 381t319 137q91 0 180 -47q87 -46 134 -117v567h186v-1409h-186v133q-52 -73 -140 -119q-88 -44 -178 -44q-177 0 -291 113q-141 138 -141 405zM278 488q0 -192 68.5 -284t214.5 -92q135 0 208 97.5t73 278.5q0 88 -18.5 158t-54 118t-87 73.5 t-117.5 25.5q-148 0 -217.5 -91.5t-69.5 -283.5z" />
<glyph unicode="e" horiz-adv-x="1100" d="M96 488q0 245 120 382q121 136 335 136q446 0 446 -545h-715q0 -170 68.5 -259.5t200.5 -89.5q114 0 180.5 52t79.5 151h186q-12 -158 -129 -253q-116 -92 -299 -92q-232 0 -352.5 131t-120.5 387zM284 594h527q0 115 -74 192t-186 77q-115 0 -187 -72q-73 -73 -80 -197z " />
<glyph unicode="f" horiz-adv-x="758" d="M70 842v133h193v176q0 268 295 268q17 0 49 -2.5t78 -7.5v-143q-56 10 -103 10q-133 0 -133 -125v-176h236v-133h-236v-842h-186v842h-193z" />
<glyph unicode="g" horiz-adv-x="1176" d="M92 502q0 234 118 368q118 136 319 136q89 0 175 -45q85 -45 138 -119v133h186v-982q0 -391 -463 -391q-416 0 -422 329h197q10 -102 65 -144q54 -42 169 -42q132 0 200 63.5t68 184.5v173q-55 -79 -139.5 -122.5t-184.5 -43.5q-192 0 -309 136t-117 366zM278 502 q0 -177 71 -268t210 -91q130 0 207 96q76 95 76 263q0 169 -76 264q-76 97 -207 97q-281 0 -281 -361z" />
<glyph unicode="h" horiz-adv-x="1176" d="M143 0v1409h186v-554q66 79 145 115t187 36q87 0 155 -25t115.5 -73t72 -117.5t24.5 -159.5v-631h-186v615q0 128 -54.5 188t-169.5 60q-124 0 -207 -80q-82 -79 -82 -199v-584h-186z" />
<glyph unicode="i" horiz-adv-x="494" d="M141 1223v186h205v-186h-205zM152 0v975h186v-975h-186z" />
<glyph unicode="j" horiz-adv-x="494" d="M-22 -255h42q132 0 132 102v1128h186v-1105q0 -268 -275 -268q-10 0 -31.5 1t-53.5 3v139zM141 1223v186h205v-186h-205z" />
<glyph unicode="k" horiz-adv-x="1100" d="M147 0v1409h186v-846l432 412h225l-452 -412l545 -563h-252l-498 533v-533h-186z" />
<glyph unicode="l" horiz-adv-x="494" d="M152 0v1409h186v-1409h-186z" />
<glyph unicode="m" horiz-adv-x="1782" d="M158 0v975h186v-120q61 79 133.5 115t171.5 36q56 0 105 -13.5t88 -38.5t67 -61t43 -81q111 194 341 194q149 0 238 -92t89 -248v-666h-186v666q0 93 -50.5 145t-138.5 52q-62 0 -110.5 -20t-82 -58t-51.5 -93t-18 -124v-568h-186v666q0 93 -50.5 145t-138.5 52 q-62 0 -110.5 -20t-83 -58.5t-52.5 -93t-18 -123.5v-568h-186z" />
<glyph unicode="n" horiz-adv-x="1176" d="M143 0v975h186v-120q69 79 150 115t189 36q168 0 264 -99q96 -98 96 -278v-629h-186v629q0 115 -54 174.5t-157 59.5q-138 0 -221 -80q-81 -80 -81 -213v-570h-186z" />
<glyph unicode="o" horiz-adv-x="1176" d="M92 488q0 244 132 381q134 137 364 137q228 0 359 -137q132 -137 132 -381q0 -246 -132 -382q-130 -136 -359 -136q-231 0 -364 136q-132 136 -132 382zM278 488q0 -186 78.5 -281t231.5 -95q150 0 227.5 95.5t77.5 280.5q0 184 -77.5 279.5t-227.5 95.5 q-153 0 -231.5 -95t-78.5 -280z" />
<glyph unicode="p" horiz-adv-x="1176" d="M143 -368v1343h186v-133q123 164 324 164q174 0 290 -116q136 -137 136 -402q0 -266 -136 -403q-115 -115 -290 -115q-99 0 -189 45q-90 46 -135 120v-503h-186zM329 488q0 -181 73 -278.5t210 -97.5q281 0 281 376q0 375 -281 375q-138 0 -210.5 -96t-72.5 -279z" />
<glyph unicode="q" horiz-adv-x="1176" d="M92 488q0 243 115 380q115 138 311 138q100 0 183.5 -43t140.5 -121v133h186v-1343h-186v503q-55 -78 -140 -121.5t-184 -43.5q-178 0 -291 117q-135 138 -135 401zM278 488q0 -376 281 -376q135 0 209 98t74 278q0 182 -73.5 278.5t-209.5 96.5q-281 0 -281 -375z" />
<glyph unicode="r" horiz-adv-x="721" d="M142 0v975h186v-143q48 96 123 135t215 39v-174q-89 0 -153 -21t-105 -65.5t-60.5 -112.5t-19.5 -162v-471h-186z" />
<glyph unicode="s" horiz-adv-x="1024" d="M99 305h186q0 -201 213 -201q117 0 177 41t60 119q0 22 -8.5 43t-23.5 38.5t-35.5 30.5t-44.5 19l-277 70q-227 57 -227 254q0 140 95 213.5t276 73.5q211 0 311 -72.5t100 -224.5h-186q0 84 -53 123t-168 39q-91 0 -140 -34t-49 -97q0 -92 103 -119l278 -74 q121 -32 178 -96t57 -167q0 -153 -107.5 -233.5t-313.5 -80.5q-398 0 -401 335z" />
<glyph unicode="t" horiz-adv-x="758" d="M49 842v133h203v197l186 82v-279h246v-133h-246v-627q0 -54 24 -78.5t76 -24.5q26 0 62 6t84 17v-135q-110 -30 -201 -30q-120 0 -175.5 56t-55.5 176v640h-203z" />
<glyph unicode="u" horiz-adv-x="1176" d="M143 346v629h186v-621q0 -242 211 -242q72 0 128 20.5t94.5 59t59 94.5t20.5 127v562h186v-975h-186v120q-120 -150 -328 -150q-179 0 -275 96.5t-96 279.5z" />
<glyph unicode="v" horiz-adv-x="1139" d="M53 975h209l318 -791l315 791h186l-411 -975h-205z" />
<glyph unicode="w" horiz-adv-x="1782" d="M66 975h196l268 -793l267 793h207l266 -793l266 793h176l-350 -975h-207l-264 797l-268 -797h-207z" />
<glyph unicode="x" horiz-adv-x="1139" d="M53 0l396 500l-375 475h237l271 -354l268 354h211l-375 -475l395 -500h-237l-291 381l-289 -381h-211z" />
<glyph unicode="y" horiz-adv-x="1139" d="M53 975h211l311 -762l320 762h186l-581 -1343h-178l157 368z" />
<glyph unicode="z" horiz-adv-x="985" d="M88 0v151l571 681h-540v143h762v-153l-572 -679h582v-143h-803z" />
<glyph unicode="{" horiz-adv-x="911" d="M166 584v135q97 4 140.5 42.5t43.5 125.5v313q0 134 69.5 202t206.5 68h113v-135h-103q-102 0 -102 -110v-338q0 -161 -143 -235q79 -41 111 -96q32 -56 32 -156v-310q0 -63 23.5 -89.5t78.5 -26.5h103v-135h-113q-136 0 -206 68t-70 200v303q0 92 -41 130t-143 44z" />
<glyph unicode="|" horiz-adv-x="1024" d="M461 -511v2047h104v-2047h-104z" />
<glyph unicode="}" horiz-adv-x="911" d="M166 -26h103q56 0 79 28.5t23 99.5v298q0 100 32 156q31 57 111 96q-76 36 -109.5 94.5t-33.5 156.5v289q0 40 -5 67.5t-17 44.5t-31.5 24t-48.5 7h-103v135h119q270 0 270 -278v-295q0 -94 40 -133t144 -45v-135q-51 -2 -86 -12t-56.5 -30.5t-31.5 -53t-10 -78.5v-299 q0 -272 -270 -272h-119v135z" />
<glyph unicode="~" horiz-adv-x="2048" d="M410 555q79 119 154 171q74 52 167 52q68 0 134 -25q34 -12 84.5 -36.5t119.5 -61.5q75 -41 126.5 -67t80.5 -39q57 -25 108 -25q60 0 109 28q51 29 123 103l22 -23q-79 -121 -153 -172t-166 -51q-70 0 -137 24q-68 24 -199 95q-168 91 -224 114q-55 23 -95 23 q-59 0 -108 -28q-48 -28 -124 -105z" />
<glyph unicode="&#xa1;" horiz-adv-x="682" d="M238 -429l31 1074h143l31 -1074h-205zM238 770v205h205v-205h-205z" />
<glyph unicode="&#xa2;" d="M168 705q0 223 99 352.5t292 159.5v253h164v-251q154 -20 252 -120q98 -101 98 -237h-186q0 97 -67 157q-67 61 -173 61q-145 0 -220 -95.5t-75 -279.5q0 -379 299 -379q104 0 170 63q66 64 66 164h186q0 -146 -97 -249q-97 -102 -253 -118v-244h-164v248 q-188 26 -290 159q-101 134 -101 356z" />
<glyph unicode="&#xa3;" d="M209 0v133h115v555h-115v133h115v154q0 235 107.5 355t316.5 120q185 0 291 -91t106 -249h-186q0 89 -59 142t-156 53q-121 0 -178.5 -80.5t-57.5 -249.5v-154h297v-133h-297v-555h627v-133h-926z" />
<glyph unicode="&#xa4;" d="M160 291l145 145q-94 115 -94 269q0 149 94 264l-145 145l72 72l145 -143q116 92 264 92q150 0 269 -92l145 143l72 -72l-145 -145q94 -115 94 -264q0 -154 -94 -269l145 -145l-72 -72l-145 145q-115 -94 -264 -94q-154 0 -269 94l-145 -145zM326 705q0 -133 93 -227 q93 -93 227 -93q131 0 223 93q92 95 92 227q0 131 -92 223t-223 92q-133 0 -227 -92q-93 -92 -93 -223z" />
<glyph unicode="&#xa5;" d="M150 1409h196l297 -596l297 596h196l-401 -774v-62h256v-115h-256v-89h256v-115h-256v-254h-184v254h-256v115h256v89h-256v115h256v62z" />
<glyph unicode="&#xa6;" horiz-adv-x="1024" d="M461 -459v920h104v-920h-104zM461 563v922h104v-922h-104z" />
<glyph unicode="&#xa7;" d="M264 676q0 94 58 157.5t164 84.5q-96 38 -147.5 107t-51.5 159q0 127 88.5 196.5t247.5 69.5q144 0 299 -41v-156q-136 74 -285 74q-186 0 -186 -145q0 -122 143 -164l215 -63q103 -30 150 -86t47 -144q0 -84 -62 -151q-62 -66 -160 -84q94 -38 146.5 -108.5t52.5 -158.5 q0 -130 -87.5 -195.5t-258.5 -65.5q-142 0 -289 38v152q131 -68 289 -68q182 0 182 141q0 122 -143 164l-200 60q-113 34 -162.5 87t-49.5 140zM387 705q0 -90 121 -127l184 -56q85 16 138 66t53 110q0 96 -123 132l-182 53q-91 -18 -141 -66t-50 -112z" />
<glyph unicode="&#xa8;" d="M367 1141v205h184v-205h-184zM735 1141v205h184v-205h-184z" />
<glyph unicode="&#xa9;" horiz-adv-x="1024" d="M37 1051q0 198 138 336q139 139 337 139q197 0 333 -139q138 -140 138 -336q0 -195 -138 -333t-333 -138q-199 0 -337 137q-138 136 -138 334zM88 1051q0 -172 125 -297q124 -123 299 -123q172 0 296 124t124 296q0 175 -124 299q-123 125 -296 125q-175 0 -300 -125 q-124 -124 -124 -299zM293 1051q0 133 63.5 205.5t175.5 72.5q81 0 136 -43q56 -44 63 -113h-78q-2 37 -38 63q-36 27 -83 27q-163 0 -163 -212q0 -209 163 -209q49 0 85 27q36 28 36 65h78q-9 -75 -61.5 -116.5t-137.5 -41.5q-112 0 -175.5 72t-63.5 203z" />
<glyph unicode="&#xaa;" horiz-adv-x="834" d="M81 503v113h671v-113h-671zM108 930q0 229 367 229h84v35q0 138 -144 138q-76 0 -108.5 -24.5t-32.5 -84.5h-123q0 100 68 153.5t196 53.5q132 0 200.5 -60.5t68.5 -175.5v-361q0 -38 20 -84h-127q-18 52 -18 88q-44 -61 -96 -85q-52 -23 -132 -23q-99 0 -161 56 q-62 57 -62 145zM233 936q0 -51 33 -80t90 -29q203 0 203 242h-53q-149 0 -212 -29q-61 -28 -61 -104z" />
<glyph unicode="&#xab;" horiz-adv-x="1139" d="M176 488l268 370h144l-226 -370l226 -371h-144zM547 488l266 370h145l-227 -370l227 -371h-145z" />
<glyph unicode="&#xac;" horiz-adv-x="2048" d="M479 770v123h1153v-637h-123v514h-1030z" />
<glyph unicode="&#xad;" horiz-adv-x="682" d="M92 469v133h490v-133h-490z" />
<glyph unicode="&#xae;" horiz-adv-x="1024" d="M37 1050q0 199 138 337q139 139 337 139q197 0 333 -139q138 -140 138 -337q0 -194 -139 -332q-138 -138 -332 -138q-196 0 -336 137q-139 138 -139 333zM88 1050q0 -171 125 -296q124 -123 299 -123q171 0 296 123q124 124 124 296q0 176 -124 300q-123 125 -296 125 q-176 0 -300 -124t-124 -301zM330 793v522h219q76 0 118 -35.5t42 -101.5q0 -90 -86 -128q53 -14 63 -85l15 -109q3 -20 9 -36t13 -27h-80q-2 4 -5.5 17t-8.5 36l-14 109q-9 69 -74 69h-139v-231h-72zM402 1085h139q96 0 96 85q0 84 -96 84h-139v-169z" />
<glyph unicode="&#xaf;" horiz-adv-x="1024" d="M0 1536v104h1024v-104h-1024z" />
<glyph unicode="&#xb0;" d="M313 1120q0 137 96 233q97 97 234 97q134 0 230 -97q96 -98 96 -233q0 -137 -96 -234q-95 -96 -230 -96q-137 0 -234 96q-96 97 -96 234zM426 1120q0 -91 63 -154t154 -63q88 0 150 63q63 64 63 154q0 88 -63 153q-61 64 -150 64q-90 0 -154 -64q-63 -63 -63 -153z" />
<glyph unicode="&#xb1;" horiz-adv-x="2048" d="M447 0v123h1151v-123h-1151zM447 616v123h514v422h123v-422h514v-123h-514v-423h-123v423h-514z" />
<glyph unicode="&#xb2;" horiz-adv-x="797" d="M94 655v90q252 167 364 281q113 115 113 201q0 57 -42.5 89t-117.5 32q-155 0 -155 -141h-125q0 109 72 167t208 58q125 0 199 -59t74 -156q0 -100 -107 -213q-54 -57 -140 -122.5t-206 -142.5h465v-84h-602z" />
<glyph unicode="&#xb3;" horiz-adv-x="797" d="M82 860h125q4 -69 52 -105t138 -36q91 0 144 40q55 40 55 101q0 137 -222 137h-43v84h43q94 0 145.5 36t51.5 100q0 61 -46 96t-128 35q-166 0 -166 -142h-125q0 102 79 163q79 63 212 63q134 0 213 -58q80 -59 80 -157q0 -27 -10 -52.5t-28 -47.5t-44 -40t-57 -30 q76 -17 117 -66t41 -121q0 -52 -21 -93.5t-61 -71t-98 -45t-132 -15.5q-309 0 -315 225z" />
<glyph unicode="&#xb4;" d="M469 1110l123 266h287l-246 -266h-164z" />
<glyph unicode="&#xb5;" horiz-adv-x="1139" d="M-101 -368l384 1343h184l-170 -605q-75 -268 168 -268q102 0 188 81q85 81 123 210l166 582h184l-221 -773q-11 -38 -16.5 -68.5t-7.5 -52.5q-2 -44 12 -81h-184q-15 49 -15 114q-94 -144 -272 -144q-165 0 -205 120l-135 -458h-183z" />
<glyph unicode="&#xb6;" d="M168 1043q0 164 104 265t267 101h575v-104h-166v-1394h-123v1394h-163v-1394h-123v767q-163 0 -267 100q-104 101 -104 265z" />
<glyph unicode="&#xb7;" horiz-adv-x="252" d="M14 596v233h217v-233h-217z" />
<glyph unicode="&#xb8;" d="M438 -368l185 248h163l-102 -248h-246z" />
<glyph unicode="&#xb9;" horiz-adv-x="797" d="M195 1196v98l202 115h99v-754h-113v650z" />
<glyph unicode="&#xba;" horiz-adv-x="834" d="M80 503v113h672v-113h-672zM84 1080q0 167 88 258q89 92 244 92q154 0 243 -93q89 -94 89 -257q0 -164 -89 -258q-89 -93 -243 -93q-155 0 -244 92q-88 92 -88 259zM209 1080q0 -253 207 -253t207 253q0 252 -207 252t-207 -252z" />
<glyph unicode="&#xbb;" horiz-adv-x="1139" d="M176 117l227 371l-227 370h146l266 -370l-266 -371h-146zM547 117l225 371l-225 370h143l268 -370l-268 -371h-143z" />
<glyph unicode="&#xbc;" horiz-adv-x="2048" d="M379 1196v98l200 115h101v-754h-113v650zM506 -38l782 1470h107l-785 -1470h-104zM1043 176v90l391 484h125v-490h178v-84h-178v-176h-113v176h-403zM1145 260h301v371z" />
<glyph unicode="&#xbd;" horiz-adv-x="2048" d="M379 1196v98l200 115h103v-754h-113v650zM506 -38l782 1470h106l-784 -1470h-104zM1122 0v88q477 313 477 475q0 60 -42 92.5t-120 32.5q-153 0 -153 -141h-125q0 109 70.5 167t207.5 58q130 0 202.5 -59.5t72.5 -165.5q0 -183 -453 -463h465v-84h-602z" />
<glyph unicode="&#xbe;" horiz-adv-x="2048" d="M254 860h127q2 -67 50.5 -104t138.5 -37q45 0 82 10.5t63.5 29t40.5 44.5t14 57q0 139 -219 139h-45v84h45q94 0 147.5 36.5t53.5 97.5q0 60 -49 95.5t-133 35.5q-164 0 -164 -142h-127q0 100 80 163q79 63 211 63q135 0 214 -58q81 -59 81 -157q0 -53 -39 -101 q-37 -47 -99 -67q156 -48 156 -189q0 -52 -21.5 -93.5t-61.5 -71t-98.5 -45t-131.5 -15.5q-309 0 -316 225zM670 -38l784 1470h105l-783 -1470h-106zM1207 178v88l391 484h125v-490h178v-82h-178v-178h-113v178h-403zM1309 260h301v371z" />
<glyph unicode="&#xbf;" horiz-adv-x="1063" d="M147 -110q0 92 65 196q66 103 183 195q70 53 100.5 105t30.5 116v143h166v-168q0 -73 -36 -128q-17 -28 -54 -67.5t-94 -93.5q-164 -155 -164 -277q0 -76 64 -139q76 -76 206 -76q121 0 232 37v-156q-139 -47 -271 -47q-197 0 -313 98q-115 97 -115 262zM508 770v205h205 v-205h-205z" />
<glyph unicode="&#xc0;" horiz-adv-x="1516" d="M57 0l596 1409h205l596 -1409h-209l-147 358h-684l-148 -358h-209zM479 522h553l-274 687zM521 1800h286l123 -268h-164z" />
<glyph unicode="&#xc1;" horiz-adv-x="1516" d="M57 0l596 1409h205l596 -1409h-209l-147 358h-684l-148 -358h-209zM479 522h553l-274 687zM582 1532l123 268h287l-246 -268h-164z" />
<glyph unicode="&#xc2;" horiz-adv-x="1516" d="M57 0l596 1409h205l596 -1409h-209l-147 358h-684l-148 -358h-209zM449 1532l184 268h246l184 -268h-164l-141 156l-145 -156h-164zM479 522h553l-274 687z" />
<glyph unicode="&#xc3;" horiz-adv-x="1516" d="M57 0l596 1409h205l596 -1409h-209l-147 358h-684l-148 -358h-209zM385 1531q0 139 52 203t161 64q34 0 74 -13.5t88 -39.5l68 -37q23 -12 42.5 -19.5t39.5 -7.5q38 0 54.5 27.5t16.5 91.5h146q0 -139 -51 -204t-160 -65q-34 0 -75 12.5t-89 40.5l-64 37 q-25 14 -46.5 20.5t-39.5 6.5q-38 0 -54.5 -27t-16.5 -90h-146zM479 522h553l-274 687z" />
<glyph unicode="&#xc4;" horiz-adv-x="1516" d="M57 0l596 1409h205l596 -1409h-209l-147 358h-684l-148 -358h-209zM479 522h553l-274 687zM480 1564v205h184v-205h-184zM848 1564v205h184v-205h-184z" />
<glyph unicode="&#xc5;" horiz-adv-x="1516" d="M57 0l596 1409h205l596 -1409h-209l-147 358h-684l-148 -358h-209zM479 522h553l-274 687zM521 1706q0 99 68 169q69 69 169 69q97 0 165 -69q68 -70 68 -169q0 -97 -69 -166q-68 -69 -164 -69q-98 0 -168 68q-69 69 -69 167zM613 1706q0 -59 42 -101q43 -42 103 -42 q58 0 99 42q42 43 42 101q0 60 -41 103q-40 43 -100 43q-61 0 -103 -42t-42 -104z" />
<glyph unicode="&#xc6;" horiz-adv-x="2009" d="M16 0l844 1409h1018v-164h-766l88 -444h647v-164h-614l92 -473h553v-164h-719l-63 358h-645l-209 -358h-226zM545 522h520l-123 690z" />
<glyph unicode="&#xc7;" horiz-adv-x="1440" d="M129 698q0 337 173 545q174 207 458 207q227 0 376 -113t179 -311h-205q-14 111 -113 179q-99 69 -237 69q-202 0 -314 -150q-112 -149 -112 -426q0 -273 111 -418t315 -145q149 0 243 65q93 64 107 179h205q-16 -195 -165 -308q-149 -111 -390 -111q-297 0 -464 195 q-167 197 -167 543zM514 -368l185 248h163l-102 -248h-246z" />
<glyph unicode="&#xc8;" horiz-adv-x="1176" d="M164 0v1409h885v-166h-688v-442h657v-166h-657v-469h688v-166h-885zM351 1800h286l123 -268h-164z" />
<glyph unicode="&#xc9;" horiz-adv-x="1176" d="M164 0v1409h885v-166h-688v-442h657v-166h-657v-469h688v-166h-885zM412 1532l123 268h287l-246 -268h-164z" />
<glyph unicode="&#xca;" horiz-adv-x="1176" d="M164 0v1409h885v-166h-688v-442h657v-166h-657v-469h688v-166h-885zM279 1532l184 268h246l184 -268h-164l-141 156l-145 -156h-164z" />
<glyph unicode="&#xcb;" horiz-adv-x="1176" d="M164 0v1409h885v-166h-688v-442h657v-166h-657v-469h688v-166h-885zM310 1564v205h184v-205h-184zM678 1564v205h184v-205h-184z" />
<glyph unicode="&#xcc;" horiz-adv-x="567" d="M48 1800h286l123 -268h-164zM184 0v1409h197v-1409h-197z" />
<glyph unicode="&#xcd;" horiz-adv-x="567" d="M109 1532l123 268h287l-246 -268h-164zM184 0v1409h197v-1409h-197z" />
<glyph unicode="&#xce;" horiz-adv-x="567" d="M-23 1532l183 268h246l184 -268h-164l-141 156l-145 -156h-163zM184 0v1409h197v-1409h-197z" />
<glyph unicode="&#xcf;" horiz-adv-x="567" d="M7 1564v205h184v-205h-184zM184 0v1409h197v-1409h-197zM375 1564v205h184v-205h-184z" />
<glyph unicode="&#xd0;" horiz-adv-x="1479" d="M39 655v166h133v588h498q313 0 493 -191q181 -190 181 -514t-181 -514t-493 -190h-498v655h-133zM369 166h301q469 0 469 538q0 539 -469 539h-301v-422h287v-166h-287v-489z" />
<glyph unicode="&#xd1;" horiz-adv-x="1479" d="M172 0v1409h279l655 -1194v1194h197v-1409h-279l-655 1196v-1196h-197zM366 1531q0 139 52 203t161 64q34 0 74 -13.5t88 -39.5l68 -37q23 -12 42.5 -19.5t39.5 -7.5q38 0 54.5 27.5t16.5 91.5h146q0 -139 -51 -204t-160 -65q-34 0 -75 12.5t-89 40.5l-64 37 q-25 14 -46.5 20.5t-39.5 6.5q-38 0 -54.5 -27t-16.5 -90h-146z" />
<glyph unicode="&#xd2;" horiz-adv-x="1554" d="M127 705q0 140 38 269t109 229q175 247 503 247q321 0 498 -247q71 -100 109 -229t38 -269q0 -141 -38 -270t-109 -229q-176 -246 -498 -246q-327 0 -503 246q-72 100 -109.5 229t-37.5 270zM332 705q0 -138 29 -244.5t85.5 -179.5t139.5 -110.5t191 -37.5q212 0 326 148 t114 424q0 273 -114 422t-326 149q-108 0 -191 -37.5t-139.5 -110.5t-85.5 -179t-29 -244zM541 1800h286l123 -268h-164z" />
<glyph unicode="&#xd3;" horiz-adv-x="1554" d="M127 705q0 140 38 269t109 229q175 247 503 247q321 0 498 -247q71 -100 109 -229t38 -269q0 -141 -38 -270t-109 -229q-176 -246 -498 -246q-327 0 -503 246q-72 100 -109.5 229t-37.5 270zM332 705q0 -138 29 -244.5t85.5 -179.5t139.5 -110.5t191 -37.5q212 0 326 148 t114 424q0 273 -114 422t-326 149q-108 0 -191 -37.5t-139.5 -110.5t-85.5 -179t-29 -244zM602 1532l123 268h287l-246 -268h-164z" />
<glyph unicode="&#xd4;" horiz-adv-x="1554" d="M127 705q0 140 38 269t109 229q175 247 503 247q321 0 498 -247q71 -100 109 -229t38 -269q0 -141 -38 -270t-109 -229q-176 -246 -498 -246q-327 0 -503 246q-72 100 -109.5 229t-37.5 270zM332 705q0 -138 29 -244.5t85.5 -179.5t139.5 -110.5t191 -37.5q212 0 326 148 t114 424q0 273 -114 422t-326 149q-108 0 -191 -37.5t-139.5 -110.5t-85.5 -179t-29 -244zM469 1532l184 268h246l184 -268h-164l-141 156l-145 -156h-164z" />
<glyph unicode="&#xd5;" horiz-adv-x="1554" d="M127 705q0 140 38 269t109 229q175 247 503 247q321 0 498 -247q71 -100 109 -229t38 -269q0 -141 -38 -270t-109 -229q-176 -246 -498 -246q-327 0 -503 246q-72 100 -109.5 229t-37.5 270zM332 705q0 -138 29 -244.5t85.5 -179.5t139.5 -110.5t191 -37.5q212 0 326 148 t114 424q0 273 -114 422t-326 149q-108 0 -191 -37.5t-139.5 -110.5t-85.5 -179t-29 -244zM405 1531q0 139 52 203t161 64q34 0 74 -13.5t88 -39.5l68 -37q23 -12 42.5 -19.5t39.5 -7.5q38 0 54.5 27.5t16.5 91.5h146q0 -139 -51 -204t-160 -65q-34 0 -75 12.5t-89 40.5 l-64 37q-25 14 -46.5 20.5t-39.5 6.5q-38 0 -54.5 -27t-16.5 -90h-146z" />
<glyph unicode="&#xd6;" horiz-adv-x="1554" d="M127 705q0 140 38 269t109 229q175 247 503 247q321 0 498 -247q71 -100 109 -229t38 -269q0 -141 -38 -270t-109 -229q-176 -246 -498 -246q-327 0 -503 246q-72 100 -109.5 229t-37.5 270zM332 705q0 -138 29 -244.5t85.5 -179.5t139.5 -110.5t191 -37.5q212 0 326 148 t114 424q0 273 -114 422t-326 149q-108 0 -191 -37.5t-139.5 -110.5t-85.5 -179t-29 -244zM500 1564v205h184v-205h-184zM868 1564v205h184v-205h-184z" />
<glyph unicode="&#xd7;" horiz-adv-x="2048" d="M570 209l364 364l-364 365l86 88l369 -365l362 365l88 -88l-364 -365l364 -364l-88 -86l-362 364l-369 -364z" />
<glyph unicode="&#xd8;" horiz-adv-x="1554" d="M115 39l149 174q-137 182 -137 492q0 337 178 540q178 205 472 205q121 0 237 -45q117 -44 187 -117l139 162l94 -82l-149 -172q137 -196 137 -491q0 -336 -177 -540q-175 -203 -468 -203q-255 0 -429 159l-139 -159zM332 705q0 -220 61 -345l687 791q-45 56 -130 91 q-81 34 -173 34q-211 0 -328 -149t-117 -422zM469 258q109 -123 308 -123q207 0 323 149q117 148 117 421q0 217 -61 342z" />
<glyph unicode="&#xd9;" horiz-adv-x="1479" d="M170 492v917h197v-917q0 -86 25 -152.5t72.5 -112.5t116.5 -70t156 -24q174 0 269 94q97 94 97 265v917h197v-917q0 -243 -154 -388q-151 -144 -409 -144q-260 0 -413 144q-154 145 -154 388zM502 1800h286l123 -268h-164z" />
<glyph unicode="&#xda;" horiz-adv-x="1479" d="M170 492v917h197v-917q0 -86 25 -152.5t72.5 -112.5t116.5 -70t156 -24q174 0 269 94q97 94 97 265v917h197v-917q0 -243 -154 -388q-151 -144 -409 -144q-260 0 -413 144q-154 145 -154 388zM563 1532l123 268h287l-246 -268h-164z" />
<glyph unicode="&#xdb;" horiz-adv-x="1479" d="M170 492v917h197v-917q0 -86 25 -152.5t72.5 -112.5t116.5 -70t156 -24q174 0 269 94q97 94 97 265v917h197v-917q0 -243 -154 -388q-151 -144 -409 -144q-260 0 -413 144q-154 145 -154 388zM430 1532l184 268h246l184 -268h-164l-141 156l-145 -156h-164z" />
<glyph unicode="&#xdc;" horiz-adv-x="1479" d="M170 492v917h197v-917q0 -86 25 -152.5t72.5 -112.5t116.5 -70t156 -24q174 0 269 94q97 94 97 265v917h197v-917q0 -243 -154 -388q-151 -144 -409 -144q-260 0 -413 144q-154 145 -154 388zM461 1564v205h184v-205h-184zM829 1564v205h184v-205h-184z" />
<glyph unicode="&#xdd;" horiz-adv-x="1403" d="M63 1409h230l408 -670l407 670h230l-539 -835v-574h-197v574zM526 1532l123 268h287l-246 -268h-164z" />
<glyph unicode="&#xde;" horiz-adv-x="1214" d="M162 0v1409h197v-268h337q226 0 344.5 -103t118.5 -298q0 -196 -118.5 -300t-344.5 -104h-337v-336h-197zM359 502h337q120 0 193 65q73 64 73 173q0 107 -73 171q-71 64 -193 64h-337v-473z" />
<glyph unicode="&#xdf;" horiz-adv-x="1251" d="M129 0v1000q0 223 113.5 331.5t348.5 108.5q199 0 305.5 -81.5t106.5 -237.5q0 -66 -32 -126.5t-89 -107.5q-39 -32 -64 -55t-38 -37q-25 -28 -25 -48q0 -23 18 -39q17 -16 71 -45l126 -69q124 -67 177 -134q53 -65 53 -153q0 -337 -383 -337q-370 0 -379 304h186 q11 -85 57 -123.5t136 -38.5q91 0 144 43.5t53 118.5q0 102 -121 168l-189 103q-38 21 -63.5 41.5t-41.5 43.5t-23 49.5t-7 59.5q0 100 116 187q81 61 106 99q26 40 26 96q0 79 -62 127q-61 49 -164 49q-145 0 -210.5 -71t-65.5 -226v-1000h-186z" />
<glyph unicode="&#xe0;" horiz-adv-x="1100" d="M96 264q0 172 135.5 256t417.5 84h115v51q0 208 -209 208q-114 0 -162.5 -39t-48.5 -127h-186q0 151 103 230t298 79q182 0 286 -89q105 -89 105 -245v-552q0 -54 31 -120h-190q-27 61 -27 129q-28 -42 -61.5 -72.5t-74.5 -49.5t-91 -28t-111 -9q-147 0 -239 80 q-91 82 -91 214zM282 278q0 -39 13 -72t37.5 -56.5t58.5 -36.5t76 -13q146 0 221.5 95t75.5 276h-74q-224 0 -316 -43q-92 -44 -92 -150zM314 1376h286l123 -266h-164z" />
<glyph unicode="&#xe1;" horiz-adv-x="1100" d="M96 264q0 172 135.5 256t417.5 84h115v51q0 208 -209 208q-114 0 -162.5 -39t-48.5 -127h-186q0 151 103 230t298 79q182 0 286 -89q105 -89 105 -245v-552q0 -54 31 -120h-190q-27 61 -27 129q-28 -42 -61.5 -72.5t-74.5 -49.5t-91 -28t-111 -9q-147 0 -239 80 q-91 82 -91 214zM282 278q0 -39 13 -72t37.5 -56.5t58.5 -36.5t76 -13q146 0 221.5 95t75.5 276h-74q-224 0 -316 -43q-92 -44 -92 -150zM375 1110l123 266h287l-246 -266h-164z" />
<glyph unicode="&#xe2;" horiz-adv-x="1100" d="M96 264q0 172 135.5 256t417.5 84h115v51q0 208 -209 208q-114 0 -162.5 -39t-48.5 -127h-186q0 151 103 230t298 79q182 0 286 -89q105 -89 105 -245v-552q0 -54 31 -120h-190q-27 61 -27 129q-28 -42 -61.5 -72.5t-74.5 -49.5t-91 -28t-111 -9q-147 0 -239 80 q-91 82 -91 214zM242 1110l184 266h246l184 -266h-164l-141 156l-145 -156h-164zM282 278q0 -39 13 -72t37.5 -56.5t58.5 -36.5t76 -13q146 0 221.5 95t75.5 276h-74q-224 0 -316 -43q-92 -44 -92 -150z" />
<glyph unicode="&#xe3;" horiz-adv-x="1100" d="M96 264q0 172 135.5 256t417.5 84h115v51q0 208 -209 208q-114 0 -162.5 -39t-48.5 -127h-186q0 151 103 230t298 79q182 0 286 -89q105 -89 105 -245v-552q0 -54 31 -120h-190q-27 61 -27 129q-28 -42 -61.5 -72.5t-74.5 -49.5t-91 -28t-111 -9q-147 0 -239 80 q-91 82 -91 214zM178 1110q0 266 211 266q32 0 73.5 -11t90.5 -40l64 -37q27 -16 49 -22t37 -6q38 0 54.5 26.5t16.5 89.5h146q0 -136 -50 -200t-157 -66q-35 -1 -77 13t-91 40l-64 35q-51 28 -86 28q-38 0 -54.5 -26.5t-16.5 -89.5h-146zM282 278q0 -39 13 -72t37.5 -56.5 t58.5 -36.5t76 -13q146 0 221.5 95t75.5 276h-74q-224 0 -316 -43q-92 -44 -92 -150z" />
<glyph unicode="&#xe4;" horiz-adv-x="1100" d="M96 264q0 172 135.5 256t417.5 84h115v51q0 208 -209 208q-114 0 -162.5 -39t-48.5 -127h-186q0 151 103 230t298 79q182 0 286 -89q105 -89 105 -245v-552q0 -54 31 -120h-190q-27 61 -27 129q-28 -42 -61.5 -72.5t-74.5 -49.5t-91 -28t-111 -9q-147 0 -239 80 q-91 82 -91 214zM273 1141v205h184v-205h-184zM282 278q0 -39 13 -72t37.5 -56.5t58.5 -36.5t76 -13q146 0 221.5 95t75.5 276h-74q-224 0 -316 -43q-92 -44 -92 -150zM641 1141v205h184v-205h-184z" />
<glyph unicode="&#xe5;" horiz-adv-x="1100" d="M96 264q0 172 135.5 256t417.5 84h115v51q0 208 -209 208q-114 0 -162.5 -39t-48.5 -127h-186q0 151 103 230t298 79q182 0 286 -89q105 -89 105 -245v-552q0 -54 31 -120h-190q-27 61 -27 129q-28 -42 -61.5 -72.5t-74.5 -49.5t-91 -28t-111 -9q-147 0 -239 80 q-91 82 -91 214zM282 278q0 -39 13 -72t37.5 -56.5t58.5 -36.5t76 -13q146 0 221.5 95t75.5 276h-74q-224 0 -316 -43q-92 -44 -92 -150zM314 1284q0 99 68 169q69 69 169 69q98 0 165 -70q68 -70 68 -168q0 -97 -69 -167q-67 -70 -164 -70q-99 0 -168 69t-69 168zM406 1284 q0 -59 42 -102q43 -43 103 -43q57 0 99 43t42 102t-42 103q-40 43 -99 43q-61 0 -103 -43q-42 -42 -42 -103z" />
<glyph unicode="&#xe6;" horiz-adv-x="1745" d="M76 266q0 338 540 338h129v62q0 97 -55.5 147t-163.5 50q-109 0 -156 -39t-47 -127h-186q0 73 26.5 130.5t76.5 97.5t123.5 60.5t166.5 20.5q229 0 340 -133q124 133 324 133q221 0 336.5 -139.5t115.5 -405.5h-716q0 -165 69 -252.5t197 -87.5q61 0 106.5 11t77.5 34.5 t51.5 60.5t28.5 89h186q-5 -150 -125 -248q-118 -96 -305 -96q-142 0 -246.5 53t-158.5 153q-33 -54 -72.5 -93t-87.5 -64t-105 -37t-126 -12q-159 0 -252 79q-92 81 -92 215zM262 281q0 -39 13 -72t36.5 -56t57 -36t75.5 -13q301 0 301 367h-71q-231 0 -322 -42 q-90 -41 -90 -148zM934 594h526q-7 128 -76.5 198.5t-187.5 70.5q-115 0 -184 -71t-78 -198z" />
<glyph unicode="&#xe7;" horiz-adv-x="1100" d="M96 488q0 247 126 382q126 136 355 136q187 0 304 -102q117 -100 120 -259h-186q-3 97 -68 157q-64 61 -170 61q-146 0 -220.5 -94.5t-74.5 -280.5q0 -376 295 -376q106 0 172 63q66 64 66 161h186q0 -164 -115 -266q-115 -100 -309 -100q-228 0 -354 135 q-127 136 -127 383zM344 -368l185 248h163l-102 -248h-246z" />
<glyph unicode="&#xe8;" horiz-adv-x="1100" d="M96 488q0 245 120 382q121 136 335 136q446 0 446 -545h-715q0 -170 68.5 -259.5t200.5 -89.5q114 0 180.5 52t79.5 151h186q-12 -158 -129 -253q-116 -92 -299 -92q-232 0 -352.5 131t-120.5 387zM284 594h527q0 115 -74 192t-186 77q-115 0 -187 -72q-73 -73 -80 -197z M314 1376h286l123 -266h-164z" />
<glyph unicode="&#xe9;" horiz-adv-x="1100" d="M96 488q0 245 120 382q121 136 335 136q446 0 446 -545h-715q0 -170 68.5 -259.5t200.5 -89.5q114 0 180.5 52t79.5 151h186q-12 -158 -129 -253q-116 -92 -299 -92q-232 0 -352.5 131t-120.5 387zM284 594h527q0 115 -74 192t-186 77q-115 0 -187 -72q-73 -73 -80 -197z M375 1110l123 266h287l-246 -266h-164z" />
<glyph unicode="&#xea;" horiz-adv-x="1100" d="M96 488q0 245 120 382q121 136 335 136q446 0 446 -545h-715q0 -170 68.5 -259.5t200.5 -89.5q114 0 180.5 52t79.5 151h186q-12 -158 -129 -253q-116 -92 -299 -92q-232 0 -352.5 131t-120.5 387zM242 1110l184 266h246l184 -266h-164l-141 156l-145 -156h-164zM284 594 h527q0 115 -74 192t-186 77q-115 0 -187 -72q-73 -73 -80 -197z" />
<glyph unicode="&#xeb;" horiz-adv-x="1100" d="M96 488q0 245 120 382q121 136 335 136q446 0 446 -545h-715q0 -170 68.5 -259.5t200.5 -89.5q114 0 180.5 52t79.5 151h186q-12 -158 -129 -253q-116 -92 -299 -92q-232 0 -352.5 131t-120.5 387zM273 1141v205h184v-205h-184zM284 594h527q0 115 -74 192t-186 77 q-115 0 -187 -72q-73 -73 -80 -197zM641 1141v205h184v-205h-184z" />
<glyph unicode="&#xec;" horiz-adv-x="492" d="M9 1376h286l123 -266h-164zM150 0v975h186v-975h-186z" />
<glyph unicode="&#xed;" horiz-adv-x="492" d="M70 1110l123 266h287l-246 -266h-164zM150 0v975h186v-975h-186z" />
<glyph unicode="&#xee;" horiz-adv-x="492" d="M-62 1110l183 266h246l184 -266h-164l-141 156l-145 -156h-163zM150 0v975h186v-975h-186z" />
<glyph unicode="&#xef;" horiz-adv-x="492" d="M-31 1141v205h183v-205h-183zM150 0v975h186v-975h-186zM336 1141v205h184v-205h-184z" />
<glyph unicode="&#xf0;" horiz-adv-x="1176" d="M94 487q0 245 133 381q133 138 363 138q72 0 133 -19q-38 55 -77 99t-81 78l-297 -80l-29 108l221 62q-114 93 -243 155h289q57 -37 149 -104l273 71l30 -108l-202 -53q156 -147 240 -336q85 -188 85 -392q0 -242 -133 -379q-132 -136 -358 -136q-230 0 -363 136 t-133 379zM280 487q0 -183 79 -278t231 -95q149 0 227 95t78 278q0 184 -78 280t-227 96q-152 0 -231 -96t-79 -280z" />
<glyph unicode="&#xf1;" horiz-adv-x="1176" d="M143 0v975h186v-120q69 79 150 115t189 36q168 0 264 -99q96 -98 96 -278v-629h-186v629q0 115 -54 174.5t-157 59.5q-138 0 -221 -80q-81 -80 -81 -213v-570h-186zM215 1110q0 266 211 266q32 0 73.5 -11t90.5 -40l64 -37q27 -16 49 -22t37 -6q38 0 54.5 26.5t16.5 89.5 h146q0 -136 -50 -200t-157 -66q-35 -1 -77 13t-91 40l-64 35q-51 28 -86 28q-38 0 -54.5 -26.5t-16.5 -89.5h-146z" />
<glyph unicode="&#xf2;" horiz-adv-x="1176" d="M92 488q0 244 132 381q134 137 364 137q228 0 359 -137q132 -137 132 -381q0 -246 -132 -382q-130 -136 -359 -136q-231 0 -364 136q-132 136 -132 382zM278 488q0 -186 78.5 -281t231.5 -95q150 0 227.5 95.5t77.5 280.5q0 184 -77.5 279.5t-227.5 95.5 q-153 0 -231.5 -95t-78.5 -280zM351 1376h286l123 -266h-164z" />
<glyph unicode="&#xf3;" horiz-adv-x="1176" d="M92 488q0 244 132 381q134 137 364 137q228 0 359 -137q132 -137 132 -381q0 -246 -132 -382q-130 -136 -359 -136q-231 0 -364 136q-132 136 -132 382zM278 488q0 -186 78.5 -281t231.5 -95q150 0 227.5 95.5t77.5 280.5q0 184 -77.5 279.5t-227.5 95.5 q-153 0 -231.5 -95t-78.5 -280zM412 1110l123 266h287l-246 -266h-164z" />
<glyph unicode="&#xf4;" horiz-adv-x="1176" d="M92 488q0 244 132 381q134 137 364 137q228 0 359 -137q132 -137 132 -381q0 -246 -132 -382q-130 -136 -359 -136q-231 0 -364 136q-132 136 -132 382zM278 488q0 -186 78.5 -281t231.5 -95q150 0 227.5 95.5t77.5 280.5q0 184 -77.5 279.5t-227.5 95.5 q-153 0 -231.5 -95t-78.5 -280zM279 1110l184 266h246l184 -266h-164l-141 156l-145 -156h-164z" />
<glyph unicode="&#xf5;" horiz-adv-x="1176" d="M92 488q0 244 132 381q134 137 364 137q228 0 359 -137q132 -137 132 -381q0 -246 -132 -382q-130 -136 -359 -136q-231 0 -364 136q-132 136 -132 382zM215 1110q0 266 211 266q32 0 73.5 -11t90.5 -40l64 -37q27 -16 49 -22t37 -6q38 0 54.5 26.5t16.5 89.5h146 q0 -136 -50 -200t-157 -66q-35 -1 -77 13t-91 40l-64 35q-51 28 -86 28q-38 0 -54.5 -26.5t-16.5 -89.5h-146zM278 488q0 -186 78.5 -281t231.5 -95q150 0 227.5 95.5t77.5 280.5q0 184 -77.5 279.5t-227.5 95.5q-153 0 -231.5 -95t-78.5 -280z" />
<glyph unicode="&#xf6;" horiz-adv-x="1176" d="M92 488q0 244 132 381q134 137 364 137q228 0 359 -137q132 -137 132 -381q0 -246 -132 -382q-130 -136 -359 -136q-231 0 -364 136q-132 136 -132 382zM278 488q0 -186 78.5 -281t231.5 -95q150 0 227.5 95.5t77.5 280.5q0 184 -77.5 279.5t-227.5 95.5 q-153 0 -231.5 -95t-78.5 -280zM310 1141v205h184v-205h-184zM678 1141v205h184v-205h-184z" />
<glyph unicode="&#xf7;" horiz-adv-x="2048" d="M446 512v123h1152v-123h-1152zM899 244q0 52 36 87q36 36 89 36q50 0 85 -36q36 -36 36 -87t-36 -87q-35 -36 -85 -36q-52 0 -89 35q-36 36 -36 88zM899 903q0 52 36 87q36 36 89 36q50 0 85 -36q36 -36 36 -87t-36 -87q-35 -36 -85 -36q-52 0 -89 35q-36 36 -36 88z" />
<glyph unicode="&#xf8;" horiz-adv-x="1176" d="M92 487q0 246 133 382q134 137 363 137q93 0 177 -28q86 -27 140 -72l92 100l76 -68l-96 -102q102 -122 102 -349q0 -266 -157 -402q-131 -113 -334 -113q-196 0 -320 97l-94 -97l-76 67l96 102q-102 124 -102 346zM278 487q0 -135 39 -213l478 513q-31 36 -86 56 t-121 20q-152 0 -231 -96t-79 -280zM376 188q77 -74 212 -74q148 0 226.5 96t78.5 277q0 135 -37 218z" />
<glyph unicode="&#xf9;" horiz-adv-x="1176" d="M143 346v629h186v-621q0 -242 211 -242q72 0 128 20.5t94.5 59t59 94.5t20.5 127v562h186v-975h-186v120q-120 -150 -328 -150q-179 0 -275 96.5t-96 279.5zM351 1376h286l123 -266h-164z" />
<glyph unicode="&#xfa;" horiz-adv-x="1176" d="M143 346v629h186v-621q0 -242 211 -242q72 0 128 20.5t94.5 59t59 94.5t20.5 127v562h186v-975h-186v120q-120 -150 -328 -150q-179 0 -275 96.5t-96 279.5zM412 1110l123 266h287l-246 -266h-164z" />
<glyph unicode="&#xfb;" horiz-adv-x="1176" d="M143 346v629h186v-621q0 -242 211 -242q72 0 128 20.5t94.5 59t59 94.5t20.5 127v562h186v-975h-186v120q-120 -150 -328 -150q-179 0 -275 96.5t-96 279.5zM279 1110l184 266h246l184 -266h-164l-141 156l-145 -156h-164z" />
<glyph unicode="&#xfc;" horiz-adv-x="1176" d="M143 346v629h186v-621q0 -242 211 -242q72 0 128 20.5t94.5 59t59 94.5t20.5 127v562h186v-975h-186v120q-120 -150 -328 -150q-179 0 -275 96.5t-96 279.5zM310 1141v205h184v-205h-184zM678 1141v205h184v-205h-184z" />
<glyph unicode="&#xfd;" horiz-adv-x="1137" d="M53 975h211l311 -762l320 762h186l-581 -1343h-178l157 368zM393 1110l123 266h287l-246 -266h-164z" />
<glyph unicode="&#xfe;" horiz-adv-x="1176" d="M143 -368v1777h186v-567q60 78 143.5 121t180.5 43q195 0 311 -138q115 -137 115 -381q0 -243 -115 -379q-114 -136 -311 -136q-99 0 -184 42.5t-140 120.5v-503h-186zM329 487q0 -180 73.5 -276.5t209.5 -96.5q144 0 212.5 91.5t68.5 281.5q0 376 -281 376 q-136 0 -209.5 -97.5t-73.5 -278.5z" />
<glyph unicode="&#xff;" horiz-adv-x="1137" d="M53 975h211l311 -762l320 762h186l-581 -1343h-178l157 368zM291 1141v205h184v-205h-184zM659 1141v205h184v-205h-184z" />
<glyph unicode="&#x152;" horiz-adv-x="2048" d="M127 705q0 329 183 517q184 187 501 187h1086v-166h-690v-442h659v-166h-659v-469h690v-166h-1086q-318 0 -501 187t-183 518zM332 705q0 -539 479 -539h199v1077h-199q-479 0 -479 -538z" />
<glyph unicode="&#x153;" horiz-adv-x="1858" d="M74 488q0 266 158 403q131 115 335 115q125 0 233 -48t164 -128q57 85 152 130.5t213 45.5q223 0 335.5 -137t112.5 -408h-716q0 -169 68.5 -258t199.5 -89q234 0 266 201h186q-12 -158 -129 -251q-116 -92 -303 -92q-255 0 -385 173q-63 -82 -167 -128 q-105 -45 -230 -45q-227 0 -360 136t-133 380zM260 488q0 -184 78 -279t229 -95t230 95t79 279q0 183 -79.5 279t-229.5 96t-228.5 -95.5t-78.5 -279.5zM1065 594h526q-6 123 -77 196q-70 73 -185 73q-112 0 -186 -74q-72 -74 -78 -195z" />
<glyph unicode="&#x178;" horiz-adv-x="1403" d="M63 1409h230l408 -670l407 670h230l-539 -835v-574h-197v574zM424 1564v205h184v-205h-184zM792 1564v205h184v-205h-184z" />
<glyph unicode="&#x2c6;" d="M336 1110l184 266h246l184 -266h-164l-141 156l-145 -156h-164z" />
<glyph unicode="&#x2dc;" d="M272 1110q0 266 211 266q32 0 73.5 -11t90.5 -40l64 -37q27 -16 49 -22t37 -6q38 0 54.5 26.5t16.5 89.5h146q0 -136 -50 -200t-157 -66q-35 -1 -77 13t-91 40l-64 35q-51 28 -86 28q-38 0 -54.5 -26.5t-16.5 -89.5h-146z" />
<glyph unicode="&#x2000;" horiz-adv-x="972" />
<glyph unicode="&#x2001;" horiz-adv-x="1944" />
<glyph unicode="&#x2002;" horiz-adv-x="972" />
<glyph unicode="&#x2003;" horiz-adv-x="1944" />
<glyph unicode="&#x2004;" horiz-adv-x="648" />
<glyph unicode="&#x2005;" horiz-adv-x="486" />
<glyph unicode="&#x2006;" horiz-adv-x="324" />
<glyph unicode="&#x2007;" horiz-adv-x="324" />
<glyph unicode="&#x2008;" horiz-adv-x="243" />
<glyph unicode="&#x2009;" horiz-adv-x="388" />
<glyph unicode="&#x200a;" horiz-adv-x="108" />
<glyph unicode="&#x2010;" horiz-adv-x="682" d="M92 469v133h490v-133h-490z" />
<glyph unicode="&#x2011;" horiz-adv-x="682" d="M92 469v133h490v-133h-490z" />
<glyph unicode="&#x2012;" horiz-adv-x="682" d="M92 469v133h490v-133h-490z" />
<glyph unicode="&#x2013;" d="M154 469v106h979v-106h-979z" />
<glyph unicode="&#x2014;" horiz-adv-x="2048" d="M287 469v106h1472v-106h-1472z" />
<glyph unicode="&#x2018;" horiz-adv-x="682" d="M176 924l225 485h134l-123 -485h-236z" />
<glyph unicode="&#x2019;" horiz-adv-x="682" d="M145 924l123 485h236l-225 -485h-134z" />
<glyph unicode="&#x201a;" horiz-adv-x="682" d="M145 -233l123 477h236l-225 -477h-134z" />
<glyph unicode="&#x201c;" horiz-adv-x="1024" d="M162 924l225 485h133l-123 -485h-235zM512 924l223 485h135l-125 -485h-233z" />
<glyph unicode="&#x201d;" horiz-adv-x="1024" d="M150 924l124 485h238l-227 -485h-135zM500 924l123 485h235l-225 -485h-133z" />
<glyph unicode="&#x201e;" horiz-adv-x="1024" d="M150 -233l124 477h238l-227 -477h-135zM500 -233l123 477h235l-225 -477h-133z" />
<glyph unicode="&#x2022;" horiz-adv-x="1024" d="M143 697q0 152 108 260q109 108 261 108t260 -108t108 -260t-108 -261q-108 -108 -260 -108q-153 0 -261 108t-108 261z" />
<glyph unicode="&#x2026;" horiz-adv-x="2048" d="M227 0v233h217v-233h-217zM913 0v233h217v-233h-217zM1599 0v233h217v-233h-217z" />
<glyph unicode="&#x202f;" horiz-adv-x="388" />
<glyph unicode="&#x2039;" horiz-adv-x="758" d="M172 488l266 370h144l-226 -370l226 -371h-144z" />
<glyph unicode="&#x203a;" horiz-adv-x="758" d="M172 117l225 371l-225 370h143l267 -370l-267 -371h-143z" />
<glyph unicode="&#x205f;" horiz-adv-x="486" />
<glyph unicode="&#x2122;" horiz-adv-x="1253" d="M39 1335v74h463v-74h-191v-503h-82v503h-190zM563 832v577h135l173 -471l174 471h133v-577h-82v517l-189 -517h-73l-189 517v-517h-82z" />
<glyph unicode="&#x25fc;" horiz-adv-x="975" d="M0 0v975h975v-975h-975z" />
</font>
</defs>
</svg>
